<?xml version="1.0" standalone="no"?>
<!DOCTYPE svg PUBLIC "-//W3C//DTD SVG 1.1//EN" "http://www.w3.org/Graphics/SVG/1.1/DTD/svg11.dtd" >
<svg xmlns="http://www.w3.org/2000/svg">
<metadata>Generated by IcoMoon</metadata>
<defs>
<font id="icomoon" horiz-adv-x="1024">
<font-face units-per-em="1024" ascent="960" descent="-64" />
<missing-glyph horiz-adv-x="1024" />
<glyph unicode="&#x20;" horiz-adv-x="512" d="" />
<glyph unicode="&#xe600;" glyph-name="weather-glyph_celsius" d="M96 800c0-70.4 57.6-128 128-128s128 57.6 128 128-57.6 128-128 128-128-57.6-128-128zM224 864c35.2 0 64-28.8 64-64s-28.8-64-64-64-64 28.8-64 64 28.8 64 64 64zM704 704c60.8 0 121.6-16 176-48 16-9.6 35.2-3.2 44.8 12.8 6.4 16 3.2 35.2-12.8 44.8-64 35.2-134.4 54.4-208 54.4-230.4 0-416-185.6-416-416s185.6-416 416-416c70.4 0 140.8 19.2 201.6 51.2 16 9.6 22.4 28.8 12.8 44.8s-28.8 22.4-44.8 12.8c-51.2-28.8-108.8-44.8-169.6-44.8-195.2 0-352 156.8-352 352s156.8 352 352 352z" />
<glyph unicode="&#xe601;" glyph-name="weather-glyph_cloud-13" d="M857.6 508.8c-25.6 166.4-172.8 291.2-345.6 291.2-150.4 0-281.6-92.8-329.6-230.4-108.8-28.8-182.4-121.6-182.4-233.6 0-124.8 96-230.4 224-240h611.2c105.6 9.6 188.8 102.4 188.8 208 0 99.2-70.4 182.4-166.4 204.8z" />
<glyph unicode="&#xe602;" glyph-name="weather-glyph_cloud-14" d="M640 832c-163.2 0-307.2-105.6-361.6-256-6.4 0-16 0-22.4 0-140.8 0-256-115.2-256-256s115.2-256 256-256h416c3.2 0 9.6 0 12.8 3.2 195.2 22.4 339.2 185.6 339.2 380.8 0 211.2-172.8 384-384 384z" />
<glyph unicode="&#xe603;" glyph-name="weather-glyph_cloud-drop" d="M860.8 636.8c-28.8 166.4-172.8 291.2-348.8 291.2-147.2 0-278.4-92.8-332.8-230.4-102.4-28.8-179.2-124.8-179.2-233.6 0-124.8 96-227.2 224-240h144c16 28.8 38.4 60.8 67.2 102.4 19.2 25.6 44.8 38.4 76.8 38.4s57.6-12.8 76.8-38.4c28.8-38.4 51.2-73.6 67.2-102.4h176c0 0 3.2 0 3.2 0 108.8 12.8 188.8 102.4 188.8 208 0 99.2-67.2 182.4-163.2 204.8zM640 89.6c0 54.4-64 147.2-102.4 198.4-12.8 16-38.4 16-51.2 0-38.4-51.2-102.4-144-102.4-198.4 0-76.8 64-121.6 128-121.6s128 44.8 128 121.6z" />
<glyph unicode="&#xe604;" glyph-name="weather-glyph_cloud-fog-31" d="M179.2 697.6c-102.4-28.8-179.2-124.8-179.2-233.6 0-6.4 0-12.8 0-19.2 0-16 16-28.8 32-28.8h960c9.6 0 16 3.2 22.4 9.6s9.6 16 9.6 25.6c-6.4 89.6-73.6 163.2-163.2 185.6-28.8 166.4-172.8 291.2-348.8 291.2-147.2 0-278.4-92.8-332.8-230.4zM992 320h-960c-19.2 0-32-12.8-32-32s12.8-32 32-32h960c19.2 0 32 12.8 32 32s-12.8 32-32 32zM896 160c0 19.2-12.8 32-32 32h-704c-19.2 0-32-12.8-32-32s12.8-32 32-32h704c19.2 0 32 12.8 32 32zM768 32c0 19.2-12.8 32-32 32h-448c-19.2 0-32-12.8-32-32s12.8-32 32-32h448c19.2 0 32 12.8 32 32z" />
<glyph unicode="&#xe605;" glyph-name="weather-glyph_cloud-fog-32" d="M860.8 604.8c-28.8 166.4-172.8 291.2-348.8 291.2-147.2 0-278.4-92.8-332.8-230.4-102.4-28.8-179.2-124.8-179.2-233.6 0-41.6 9.6-80 28.8-112 0 0 3.2 0 3.2 0h320c54.4 0 96-41.6 96-96 0-12.8-3.2-22.4-6.4-32h390.4c0 0 3.2 0 3.2 0 108.8 12.8 188.8 102.4 188.8 208 0 99.2-67.2 182.4-163.2 204.8zM352 256h-320c-19.2 0-32-12.8-32-32s12.8-32 32-32h320c19.2 0 32 12.8 32 32s-12.8 32-32 32zM160 96c0-19.2 12.8-32 32-32h320c19.2 0 32 12.8 32 32s-12.8 32-32 32h-320c-19.2 0-32-12.8-32-32z" />
<glyph unicode="&#xe606;" glyph-name="weather-glyph_cloud-hail" d="M860.8 668.8c-28.8 166.4-172.8 291.2-348.8 291.2-147.2 0-278.4-92.8-332.8-230.4-102.4-28.8-179.2-124.8-179.2-233.6 0-124.8 96-227.2 224-240h96v128c0 19.2 12.8 32 32 32s32-12.8 32-32v-128h96v64c0 19.2 12.8 32 32 32s32-12.8 32-32v-64h96v128c0 19.2 12.8 32 32 32s32-12.8 32-32v-128h128c0 0 3.2 0 3.2 0 108.8 12.8 188.8 102.4 188.8 208 0 99.2-67.2 182.4-163.2 204.8zM384 64v32c0 19.2-12.8 32-32 32s-32-12.8-32-32v-32c0-19.2 12.8-32 32-32s32 12.8 32 32zM544 0v32c0 19.2-12.8 32-32 32s-32-12.8-32-32v-32c0-19.2 12.8-32 32-32s32 12.8 32 32zM704 64v32c0 19.2-12.8 32-32 32s-32-12.8-32-32v-32c0-19.2 12.8-32 32-32s32 12.8 32 32zM320 224c0-19.2 12.8-32 32-32s32 12.8 32 32v32h-64v-32zM640 224c0-19.2 12.8-32 32-32s32 12.8 32 32v32h-64v-32zM480 160c0-19.2 12.8-32 32-32s32 12.8 32 32v96h-64v-96z" />
<glyph unicode="&#xe607;" glyph-name="weather-glyph_cloud-light" d="M860.8 668.8c-28.8 166.4-172.8 291.2-348.8 291.2-147.2 0-278.4-92.8-332.8-230.4-102.4-28.8-179.2-124.8-179.2-233.6 0-124.8 96-227.2 224-240h102.4c3.2 6.4 6.4 16 9.6 22.4l128 192c19.2 25.6 48 41.6 80 41.6 19.2 0 38.4-6.4 54.4-16 44.8-28.8 54.4-89.6 25.6-134.4l-28.8-41.6h12.8c35.2 0 67.2-19.2 83.2-48 3.2-6.4 3.2-9.6 6.4-16h134.4c0 0 3.2 0 3.2 0 108.8 12.8 188.8 102.4 188.8 208 0 99.2-67.2 182.4-163.2 204.8zM563.2 441.6c-16 9.6-35.2 6.4-44.8-9.6l-128-192c-6.4-9.6-6.4-22.4 0-32s16-16 28.8-16h137.6l-99.2-176c-9.6-16-3.2-35.2 12.8-44.8 0-3.2 3.2-3.2 9.6-3.2 9.6 0 22.4 6.4 28.8 16l128 224c6.4 9.6 6.4 22.4 0 32s-16 16-28.8 16h-131.2l96 140.8c6.4 16 3.2 35.2-9.6 44.8z" />
<glyph unicode="&#xe608;" glyph-name="weather-glyph_cloud-moon" d="M992 640c-140.8 0-256 115.2-256 256 0 19.2-12.8 32-32 32-128 0-243.2-76.8-294.4-192-9.6 0-19.2 0-28.8 0-211.2 0-380.8-172.8-380.8-384s169.6-384 380.8-384h393.6c140.8 0 249.6 112 249.6 252.8 0 73.6-28.8 137.6-76.8 182.4 48 57.6 76.8 128 76.8 204.8 0 19.2-12.8 32-32 32zM896 441.6c-35.2 19.2-76.8 32-124.8 32-9.6 0-19.2 0-28.8-3.2-38.4 128-140.8 224-268.8 256 38.4 76.8 112 128 198.4 137.6 16-150.4 134.4-268.8 284.8-284.8-3.2-51.2-25.6-99.2-60.8-137.6z" />
<glyph unicode="&#xe609;" glyph-name="weather-glyph_cloud-rain" d="M480 0c0-19.2 12.8-32 32-32s32 12.8 32 32v224h-64v-224zM320 96c0-19.2 12.8-32 32-32s32 12.8 32 32v128h-64v-128zM640 96c0-19.2 12.8-32 32-32s32 12.8 32 32v128h-64v-128zM224 224h96v160c0 19.2 12.8 32 32 32s32-12.8 32-32v-160h96v64c0 19.2 12.8 32 32 32s32-12.8 32-32v-64h96v160c0 19.2 12.8 32 32 32s32-12.8 32-32v-160h128c0 0 3.2 0 3.2 0 108.8 12.8 188.8 102.4 188.8 208 0 99.2-67.2 182.4-163.2 204.8-28.8 166.4-172.8 291.2-348.8 291.2-147.2 0-278.4-92.8-332.8-230.4-102.4-28.8-179.2-124.8-179.2-233.6 0-124.8 96-227.2 224-240z" />
<glyph unicode="&#xe60a;" glyph-name="weather-glyph_cloud-rainbow" d="M992 864c19.2 0 32 12.8 32 32s-12.8 32-32 32c-208 0-390.4-121.6-470.4-310.4-54.4 35.2-118.4 54.4-185.6 54.4-185.6 0-336-150.4-336-336s150.4-336 336-336h435.2c137.6 0 249.6 112 249.6 249.6 0 89.6-48 169.6-118.4 211.2 16 32 51.2 54.4 86.4 54.4 19.2 0 32 12.8 32 32s-12.8 32-32 32c-64 0-118.4-35.2-147.2-92.8-22.4 6.4-48 9.6-73.6 9.6-16 0-28.8-3.2-44.8-3.2 32 115.2 137.6 195.2 262.4 195.2 19.2 0 32 12.8 32 32s-12.8 32-32 32c-166.4 0-307.2-121.6-332.8-284.8-3.2-3.2-6.4-3.2-9.6-6.4-16 41.6-44.8 80-76.8 112 73.6 176 240 291.2 425.6 291.2z" />
<glyph unicode="&#xe60b;" glyph-name="weather-glyph_cloud-snow-34" d="M860.8 636.8c-28.8 166.4-172.8 291.2-348.8 291.2-147.2 0-278.4-92.8-332.8-230.4-102.4-28.8-179.2-124.8-179.2-233.6 0-124.8 96-227.2 224-240h256v32c0 19.2 12.8 32 32 32s32-12.8 32-32v-32h288c0 0 3.2 0 3.2 0 108.8 12.8 188.8 102.4 188.8 208 0 99.2-67.2 182.4-163.2 204.8zM384 320c0-19.2-12.8-32-32-32s-32 12.8-32 32v32c0 19.2 12.8 32 32 32s32-12.8 32-32v-32zM704 320c0-19.2-12.8-32-32-32s-32 12.8-32 32v32c0 19.2 12.8 32 32 32s32-12.8 32-32v-32zM544 32v32c0 19.2-12.8 32-32 32s-32-12.8-32-32v-32c0-19.2 12.8-32 32-32s32 12.8 32 32zM384 128v32c0 19.2-12.8 32-32 32s-32-12.8-32-32v-32c0-19.2 12.8-32 32-32s32 12.8 32 32zM704 128v32c0 19.2-12.8 32-32 32s-32-12.8-32-32v-32c0-19.2 12.8-32 32-32s32 12.8 32 32z" />
<glyph unicode="&#xe60c;" glyph-name="weather-glyph_cloud-snow-42" d="M860.8 636.8c-28.8 166.4-172.8 291.2-348.8 291.2-147.2 0-278.4-92.8-332.8-230.4-102.4-28.8-179.2-124.8-179.2-233.6 0-124.8 96-227.2 224-240h105.6c-25.6 28.8-32 76.8-12.8 112 16 28.8 48 48 83.2 48 6.4 0 12.8 0 19.2-3.2 12.8 38.4 48 67.2 92.8 67.2s80-28.8 92.8-67.2c6.4 0 12.8 3.2 19.2 3.2 35.2 0 67.2-19.2 83.2-48 22.4-38.4 16-83.2-12.8-112h137.6c0 0 3.2 0 3.2 0 108.8 12.8 188.8 102.4 188.8 208 0 99.2-67.2 182.4-163.2 204.8zM374.4 144c6.4-9.6 16-16 28.8-16 6.4 0 9.6 0 16 3.2l64 35.2v-70.4c0-19.2 12.8-32 32-32s32 12.8 32 32v73.6l64-35.2c6.4-3.2 9.6-3.2 16-3.2 9.6 0 22.4 6.4 28.8 16 9.6 16 3.2 35.2-12.8 44.8l-67.2 32 64 35.2c16 9.6 19.2 28.8 12.8 44.8-9.6 16-28.8 19.2-44.8 12.8l-64-35.2v70.4c0 19.2-12.8 32-32 32s-32-12.8-32-32v-73.6l-64 35.2c-16 9.6-35.2 3.2-44.8-12.8s-3.2-35.2 12.8-44.8l64-35.2-64-35.2c-12.8-6.4-19.2-25.6-9.6-41.6z" />
<glyph unicode="&#xe60d;" glyph-name="weather-glyph_cloud-sun-17" d="M704 928c-128 0-243.2-76.8-294.4-192-9.6 0-19.2 0-28.8 0-211.2 0-380.8-172.8-380.8-384s169.6-384 380.8-384h393.6c140.8 0 249.6 112 249.6 252.8 0 73.6-28.8 137.6-76.8 182.4 48 57.6 76.8 128 76.8 204.8 0 176-144 320-320 320zM896 441.6c-35.2 19.2-76.8 32-124.8 32-9.6 0-19.2 0-28.8-3.2-38.4 128-140.8 224-268.8 256 44.8 83.2 134.4 137.6 230.4 137.6 140.8 0 256-115.2 256-256 0-64-22.4-121.6-64-166.4z" />
<glyph unicode="&#xe60e;" glyph-name="weather-glyph_cloud-sun-19" d="M576 864c19.2 0 32 12.8 32 32v32c0 19.2-12.8 32-32 32s-32-12.8-32-32v-32c0-19.2 12.8-32 32-32zM848 752c9.6 0 16 3.2 22.4 9.6l22.4 22.4c12.8 12.8 12.8 32 0 44.8s-32 12.8-44.8 0l-22.4-22.4c-12.8-12.8-12.8-32 0-44.8 6.4-6.4 12.8-9.6 22.4-9.6zM992 544h-32c-19.2 0-32-12.8-32-32s12.8-32 32-32h32c19.2 0 32 12.8 32 32s-12.8 32-32 32zM281.6 761.6c6.4-6.4 16-9.6 22.4-9.6s16 3.2 22.4 9.6c12.8 12.8 12.8 32 0 44.8l-22.4 22.4c-12.8 12.8-32 12.8-44.8 0s-12.8-32 0-44.8l22.4-22.4zM848 422.4c9.6 28.8 16 57.6 16 89.6 0 160-128 288-288 288-124.8 0-233.6-80-272-195.2-169.6-16-304-160-304-332.8 0-185.6 150.4-336 336-336h435.2c137.6 0 249.6 112 249.6 249.6 3.2 112-70.4 204.8-172.8 236.8zM787.2 435.2c-3.2 0-6.4 0-12.8 0-44.8 0-86.4-12.8-124.8-35.2-48 112-153.6 192-275.2 204.8 35.2 80 112 131.2 201.6 131.2 124.8 0 224-99.2 224-224 0-25.6-6.4-54.4-12.8-76.8z" />
<glyph unicode="&#xe60f;" glyph-name="weather-glyph_compass" d="M512 960c-281.6 0-512-230.4-512-512s230.4-512 512-512 512 230.4 512 512-230.4 512-512 512zM748.8 483.2l-182.4-92.8-92.8-182.4c-3.2-9.6-12.8-16-25.6-16 0 0-3.2 0-3.2 0-12.8 0-25.6 9.6-28.8 22.4l-128 416c-3.2 12.8 0 22.4 6.4 32 12.8 9.6 22.4 12.8 35.2 9.6l416-128c12.8-3.2 22.4-16 22.4-28.8s-6.4-25.6-19.2-32z" />
<glyph unicode="&#xe610;" glyph-name="weather-glyph_drop-12" d="M512-64c188.8 0 384 144 384 384 0 233.6-345.6 582.4-361.6 598.4-12.8 12.8-32 12.8-44.8 0-16-16-361.6-364.8-361.6-598.4 0-240 195.2-384 384-384zM384 352c19.2 0 32-12.8 32-32 0-89.6 80-96 96-96s32-16 32-32-16-32-32-32c-44.8 0-160 28.8-160 160 0 19.2 12.8 32 32 32z" />
<glyph unicode="&#xe611;" glyph-name="weather-glyph_drop-15" d="M512-64c188.8 0 384 144 384 384 0 230.4-345.6 582.4-361.6 598.4-12.8 12.8-32 12.8-44.8 0-16-16-361.6-368-361.6-598.4 0-240 195.2-384 384-384z" />
<glyph unicode="&#xe612;" glyph-name="weather-glyph_drops" d="M832 249.6c0 182.4-284.8 467.2-297.6 480s-32 12.8-44.8 0c-12.8-16-297.6-297.6-297.6-480 0-195.2 163.2-313.6 320-313.6s320 118.4 320 313.6zM886.4 918.4c-12.8 12.8-32 12.8-44.8 0-22.4-22.4-137.6-137.6-137.6-220.8 0-96 80-153.6 160-153.6s160 57.6 160 153.6c0 83.2-115.2 198.4-137.6 220.8zM160 544c80 0 160 57.6 160 153.6 0 83.2-115.2 198.4-137.6 220.8-12.8 12.8-32 12.8-44.8 0-22.4-22.4-137.6-137.6-137.6-220.8 0-96 80-153.6 160-153.6z" />
<glyph unicode="&#xe613;" glyph-name="weather-glyph_eclipse" d="M512 960c-281.6 0-512-230.4-512-512s230.4-512 512-512 512 230.4 512 512-230.4 512-512 512zM524.8 0c-3.2 0-9.6 0-12.8 0-246.4 0-448 201.6-448 448s201.6 448 448 448c3.2 0 9.6 0 12.8 0-160-89.6-265.6-259.2-265.6-448s105.6-358.4 265.6-448z" />
<glyph unicode="&#xe614;" glyph-name="weather-glyph_fahrenheit" d="M64 800c0-70.4 57.6-128 128-128s128 57.6 128 128-57.6 128-128 128-128-57.6-128-128zM256 800c0-35.2-28.8-64-64-64s-64 28.8-64 64 28.8 64 64 64 64-28.8 64-64zM928 736c19.2 0 32 12.8 32 32s-12.8 32-32 32h-480c-19.2 0-32-12.8-32-32v-800c0-19.2 12.8-32 32-32s32 12.8 32 32v416h384c19.2 0 32 12.8 32 32s-12.8 32-32 32h-384v288h448z" />
<glyph unicode="&#xe615;" glyph-name="weather-glyph_fog" d="M3.2 649.6c9.6-16 28.8-19.2 44.8-9.6l124.8 73.6c48 28.8 105.6 25.6 153.6-3.2l73.6-48c35.2-22.4 73.6-35.2 115.2-35.2s80 12.8 115.2 35.2l73.6 48c44.8 28.8 105.6 32 153.6 3.2l124.8-73.6c16-9.6 35.2-3.2 44.8 9.6s3.2 35.2-9.6 44.8l-131.2 73.6c-67.2 41.6-153.6 38.4-220.8-6.4l-73.6-48c-48-32-108.8-32-156.8 0l-73.6 48c-67.2 44.8-153.6 48-224 6.4l-121.6-73.6c-16-9.6-19.2-28.8-12.8-44.8zM3.2 121.6c9.6-16 28.8-19.2 44.8-9.6l124.8 73.6c48 28.8 105.6 25.6 153.6-3.2l73.6-48c35.2-22.4 73.6-35.2 115.2-35.2s80 12.8 115.2 35.2l73.6 48c44.8 28.8 105.6 32 153.6 3.2l124.8-73.6c16-9.6 35.2-3.2 44.8 9.6s3.2 35.2-9.6 44.8l-124.8 73.6c-67.2 41.6-153.6 38.4-220.8-6.4l-73.6-48c-48-32-108.8-32-156.8 0l-73.6 48c-67.2 44.8-153.6 44.8-220.8 6.4l-124.8-73.6c-22.4-9.6-25.6-28.8-19.2-44.8zM3.2 387.2c9.6-16 28.8-19.2 44.8-9.6l124.8 70.4c48 28.8 105.6 25.6 153.6-3.2l73.6-48c35.2-22.4 73.6-35.2 115.2-35.2 38.4 0 80 12.8 115.2 35.2l73.6 48c44.8 32 105.6 32 153.6 3.2l124.8-73.6c16-9.6 35.2-3.2 44.8 9.6 9.6 16 3.2 35.2-9.6 44.8l-124.8 73.6c-67.2 41.6-153.6 38.4-220.8-6.4l-73.6-48c-48-32-108.8-32-156.8 0l-73.6 48c-73.6 48-160 48-230.4 9.6l-124.8-73.6c-12.8-9.6-16-32-9.6-44.8z" />
<glyph unicode="&#xe616;" glyph-name="weather-glyph_forecast" d="M64 928v-960c0-19.2 12.8-32 32-32s32 12.8 32 32v960c0 19.2-12.8 32-32 32s-32-12.8-32-32zM448 851.2l-217.6 44.8c-9.6 0-19.2 0-25.6-6.4-9.6-6.4-12.8-16-12.8-25.6v-576c0-9.6 3.2-19.2 12.8-25.6 3.2-3.2 12.8-6.4 19.2-6.4 3.2 0 3.2 0 6.4 0l217.6 44.8v550.4zM704 796.8l-192 38.4v-518.4l192 38.4zM998.4 736l-230.4 48v-416l230.4 48c16 3.2 25.6 16 25.6 32v256c0 16-9.6 28.8-25.6 32z" />
<glyph unicode="&#xe617;" glyph-name="weather-glyph_hurricane-44" d="M700.8 92.8c-9.6 16-28.8 19.2-44.8 9.6-38.4-25.6-89.6-38.4-144-38.4-60.8 0-115.2 16-156.8 44.8-16 9.6-35.2 6.4-44.8-6.4-9.6-16-6.4-35.2 6.4-44.8 51.2-35.2 121.6-57.6 192-57.6 67.2 0 128 16 179.2 48 19.2 9.6 22.4 28.8 12.8 44.8zM800 313.6c-12.8 12.8-32 12.8-44.8 0-48-48-144-76.8-243.2-76.8s-188.8 28.8-240 73.6c-12.8 12.8-32 9.6-44.8-3.2s-9.6-32 3.2-44.8c60.8-57.6 169.6-89.6 284.8-89.6 118.4 0 227.2 35.2 288 96 9.6 12.8 9.6 32-3.2 44.8zM870.4 483.2c-9.6 12.8-32 16-44.8 6.4-64-48-182.4-80-313.6-80s-249.6 32-313.6 80c-12.8 9.6-35.2 9.6-44.8-6.4-9.6-12.8-6.4-35.2 6.4-44.8 73.6-57.6 208-92.8 352-92.8s278.4 35.2 352 92.8c12.8 9.6 16 32 6.4 44.8zM992 723.2c0-95.435-214.903-172.8-480-172.8s-480 77.365-480 172.8c0 95.435 214.903 172.8 480 172.8s480-77.365 480-172.8z" />
<glyph unicode="&#xe618;" glyph-name="weather-glyph_hurricane-45" d="M992 864c0 19.2-12.8 32-32 32h-896c-19.2 0-32-12.8-32-32s12.8-32 32-32h896c19.2 0 32 12.8 32 32zM832 672c19.2 0 32 12.8 32 32s-12.8 32-32 32h-640c-19.2 0-32-12.8-32-32s12.8-32 32-32h640zM896 544c0 19.2-12.8 32-32 32h-544c-19.2 0-32-12.8-32-32s12.8-32 32-32h544c19.2 0 32 12.8 32 32zM800 384c0 19.2-12.8 32-32 32h-320c-19.2 0-32-12.8-32-32s12.8-32 32-32h320c19.2 0 32 12.8 32 32zM544 224c0 19.2-12.8 32-32 32h-224c-19.2 0-32-12.8-32-32s12.8-32 32-32h224c19.2 0 32 12.8 32 32zM128 64c0-19.2 12.8-32 32-32h160c19.2 0 32 12.8 32 32s-12.8 32-32 32h-160c-19.2 0-32-12.8-32-32z" />
<glyph unicode="&#xe619;" glyph-name="weather-glyph_moon-cloud-drop" d="M992 640c0 12.8 0 28.8-3.2 44.8 0 9.6-6.4 16-12.8 22.4s-16 6.4-25.6 3.2-38.4-6.4-54.4-6.4c-105.6 0-192 86.4-192 188.8 0 9.6-3.2 19.2-9.6 22.4s-16 12.8-25.6 9.6c-124.8-16-224-108.8-246.4-230.4-70.4-19.2-131.2-64-166.4-128-16 3.2-32 6.4-48 6.4-115.2 0-208-92.8-208-204.8 0-115.2 92.8-208 208-208h124.8c16 51.2 51.2 108.8 108.8 172.8 19.2 22.4 44.8 35.2 73.6 35.2s54.4-12.8 73.6-35.2c54.4-67.2 92.8-124.8 108.8-172.8h124.8c115.2 0 208 92.8 208 208 0 57.6-22.4 108.8-60.8 147.2 12.8 38.4 22.4 80 22.4 124.8zM928 640c0-32-6.4-60.8-19.2-89.6-28.8 12.8-57.6 22.4-92.8 22.4-28.8 0-57.6-6.4-83.2-19.2-44.8 92.8-137.6 150.4-243.2 150.4 0 0 0 0 0 0 22.4 73.6 80 131.2 153.6 150.4 19.2-121.6 124.8-214.4 252.8-214.4 9.6 0 22.4 0 32 0 0 0 0 0 0 0zM486.4 291.2c-35.2-41.6-102.4-131.2-102.4-188.8 0-86.4 64-134.4 128-134.4s128 48 128 134.4c0 60.8-67.2 147.2-102.4 188.8-12.8 16-38.4 16-51.2 0z" />
<glyph unicode="&#xe61a;" glyph-name="weather-glyph_moon-cloud-fog" d="M992 224h-960c-19.2 0-32-12.8-32-32s12.8-32 32-32h960c19.2 0 32 12.8 32 32s-12.8 32-32 32zM864 96h-704c-19.2 0-32-12.8-32-32s12.8-32 32-32h704c19.2 0 32 12.8 32 32s-12.8 32-32 32zM992 611.2c0 12.8 0 28.8-3.2 44.8 0 9.6-6.4 16-12.8 22.4s-16 6.4-25.6 3.2c-16-6.4-35.2-6.4-51.2-6.4-105.6 0-192 86.4-192 188.8 0 9.6-3.2 19.2-9.6 22.4s-19.2 9.6-28.8 9.6c-124.8-16-224-108.8-246.4-233.6-70.4-19.2-131.2-64-166.4-128-16 3.2-32 6.4-48 6.4-115.2 0-208-92.8-208-204.8 0-6.4 0-12.8 0-16 0-16 16-28.8 32-28.8h960c16 0 32 12.8 32 28.8 0 6.4 0 12.8 0 16 0 57.6-25.6 108.8-64 147.2 22.4 38.4 32 83.2 32 128zM928 611.2c0-32-6.4-60.8-19.2-89.6-28.8 12.8-57.6 22.4-92.8 22.4-28.8 0-57.6-6.4-83.2-19.2-44.8 89.6-137.6 147.2-243.2 147.2 0 0 0 0 0 0 22.4 73.6 80 134.4 153.6 153.6 19.2-121.6 124.8-214.4 252.8-214.4 9.6 0 22.4 0 32 0 0 0 0 0 0 0z" />
<glyph unicode="&#xe61b;" glyph-name="weather-glyph_moon-cloud-hail" d="M992 640c0 12.8 0 28.8-3.2 44.8 0 9.6-6.4 16-12.8 22.4s-16 6.4-25.6 3.2-38.4-6.4-54.4-6.4c-105.6 0-192 86.4-192 188.8 0 9.6-3.2 19.2-9.6 22.4s-16 12.8-25.6 9.6c-124.8-16-224-108.8-246.4-230.4-70.4-19.2-131.2-64-166.4-128-16 3.2-32 6.4-48 6.4-115.2 0-208-92.8-208-204.8s92.8-208 208-208h611.2c115.2 0 208 92.8 208 208 0 57.6-22.4 108.8-60.8 147.2 16 38.4 25.6 80 25.6 124.8zM928 640c0-32-6.4-60.8-19.2-89.6-28.8 12.8-57.6 22.4-92.8 22.4-28.8 0-57.6-6.4-83.2-19.2-44.8 92.8-137.6 150.4-243.2 150.4 0 0 0 0 0 0 22.4 73.6 80 131.2 153.6 150.4 19.2-121.6 124.8-214.4 252.8-214.4 9.6 0 22.4 0 32 0 0 0 0 0 0 0zM512 64c-19.2 0-32-12.8-32-32v-32c0-19.2 12.8-32 32-32s32 12.8 32 32v32c0 19.2-12.8 32-32 32zM384 128c-19.2 0-32-12.8-32-32v-32c0-19.2 12.8-32 32-32s32 12.8 32 32v32c0 19.2-12.8 32-32 32zM640 128c-19.2 0-32-12.8-32-32v-32c0-19.2 12.8-32 32-32s32 12.8 32 32v32c0 19.2-12.8 32-32 32z" />
<glyph unicode="&#xe61c;" glyph-name="weather-glyph_moon-cloud-light" d="M992 643.2c0 12.8 0 28.8-3.2 44.8 0 9.6-6.4 16-12.8 22.4s-16 6.4-25.6 3.2c-16-6.4-35.2-6.4-51.2-6.4-105.6 0-192 86.4-192 188.8 0 9.6-3.2 19.2-9.6 22.4s-19.2 9.6-28.8 9.6c-124.8-16-224-108.8-246.4-233.6-70.4-19.2-131.2-64-166.4-128-16 3.2-32 6.4-48 6.4-115.2 0-208-92.8-208-204.8 0-115.2 92.8-208 208-208h150.4c-9.6 25.6-6.4 57.6 6.4 80l96 160c19.2 28.8 51.2 48 83.2 48 16 0 35.2-3.2 48-12.8 22.4-12.8 38.4-35.2 44.8-57.6 6.4-25.6 3.2-51.2-9.6-73.6l-12.8-22.4c19.2-9.6 35.2-22.4 48-41.6 12.8-25.6 16-54.4 6.4-80h150.4c115.2 0 208 92.8 208 208 0 57.6-25.6 108.8-64 147.2 19.2 38.4 28.8 83.2 28.8 128zM928 643.2c0-32-6.4-60.8-19.2-89.6-28.8 12.8-57.6 22.4-92.8 22.4-28.8 0-57.6-6.4-83.2-19.2-44.8 89.6-137.6 147.2-243.2 147.2 0 0 0 0 0 0 22.4 73.6 80 134.4 153.6 153.6 19.2-121.6 124.8-214.4 252.8-214.4 9.6 0 22.4 0 32 0 0 0 0 0 0 0zM576 224h-70.4l67.2 112c9.6 16 3.2 35.2-9.6 44.8-16 9.6-35.2 3.2-44.8-9.6l-96-160c-6.4-9.6-6.4-22.4 0-32s16-16 28.8-16h70.4l-67.2-112c-9.6-16-3.2-35.2 9.6-44.8 3.2-6.4 9.6-6.4 16-6.4 9.6 0 22.4 6.4 28.8 16l96 160c6.4 9.6 6.4 22.4 0 32s-16 16-28.8 16z" />
<glyph unicode="&#xe61d;" glyph-name="weather-glyph_moon-cloud-rain" d="M992 640c0 12.8 0 28.8-3.2 44.8 0 9.6-6.4 16-12.8 22.4s-16 6.4-25.6 3.2-38.4-6.4-54.4-6.4c-105.6 0-192 86.4-192 188.8 0 9.6-3.2 19.2-9.6 22.4s-16 12.8-25.6 9.6c-124.8-16-224-108.8-246.4-230.4-70.4-19.2-131.2-64-166.4-128-16 3.2-32 6.4-48 6.4-115.2 0-208-92.8-208-204.8s92.8-208 208-208h144v192c0 19.2 12.8 32 32 32s32-12.8 32-32v-192h64v96c0 19.2 12.8 32 32 32s32-12.8 32-32v-96h64v192c0 19.2 12.8 32 32 32s32-12.8 32-32v-192h144c115.2 0 208 92.8 208 208 0 57.6-22.4 108.8-60.8 147.2 19.2 38.4 28.8 80 28.8 124.8zM928 640c0-32-6.4-60.8-19.2-89.6-28.8 12.8-57.6 22.4-92.8 22.4-28.8 0-57.6-6.4-83.2-19.2-44.8 92.8-137.6 150.4-243.2 150.4 0 0 0 0 0 0 22.4 73.6 80 131.2 153.6 150.4 19.2-121.6 124.8-214.4 252.8-214.4 9.6 0 22.4 0 32 0 0 0 0 0 0 0zM352 96c0-19.2 12.8-32 32-32s32 12.8 32 32v64h-64v-64zM480 0c0-19.2 12.8-32 32-32s32 12.8 32 32v160h-64v-160zM608 96c0-19.2 12.8-32 32-32s32 12.8 32 32v64h-64v-64z" />
<glyph unicode="&#xe61e;" glyph-name="weather-glyph_moon-cloud-snow-61" d="M992 640c0 12.8 0 28.8-3.2 44.8 0 9.6-6.4 16-12.8 22.4s-16 6.4-25.6 3.2c-128-35.2-246.4 60.8-246.4 182.4 0 9.6-3.2 19.2-9.6 22.4-6.4 6.4-16 9.6-25.6 6.4-124.8-16-224-108.8-246.4-230.4-70.4-19.2-131.2-64-166.4-128-16 3.2-32 6.4-48 6.4-115.2 3.2-208-89.6-208-201.6 0-115.2 92.8-208 208-208h272v32c0 19.2 12.8 32 32 32s32-12.8 32-32v-32h272c115.2 0 208 92.8 208 208 0 57.6-22.4 108.8-60.8 147.2 19.2 38.4 28.8 80 28.8 124.8zM416 256c0-19.2-12.8-32-32-32s-32 12.8-32 32v32c0 19.2 12.8 32 32 32s32-12.8 32-32v-32zM672 256c0-19.2-12.8-32-32-32s-32 12.8-32 32v32c0 19.2 12.8 32 32 32s32-12.8 32-32v-32zM908.8 550.4c-28.8 12.8-57.6 22.4-92.8 22.4-28.8 0-57.6-6.4-83.2-19.2-44.8 92.8-137.6 150.4-243.2 150.4 0 0 0 0 0 0 22.4 73.6 80 131.2 153.6 150.4 22.4-131.2 147.2-230.4 284.8-214.4 0 0 0 0 0-3.2 0-28.8-6.4-57.6-19.2-86.4zM512 64c-19.2 0-32-12.8-32-32v-32c0-19.2 12.8-32 32-32s32 12.8 32 32v32c0 19.2-12.8 32-32 32zM384 128c-19.2 0-32-12.8-32-32v-32c0-19.2 12.8-32 32-32s32 12.8 32 32v32c0 19.2-12.8 32-32 32zM640 128c-19.2 0-32-12.8-32-32v-32c0-19.2 12.8-32 32-32s32 12.8 32 32v32c0 19.2-12.8 32-32 32z" />
<glyph unicode="&#xe61f;" glyph-name="weather-glyph_moon-cloud-snow-62" d="M992 640c0 12.8 0 28.8-3.2 44.8 0 9.6-6.4 16-12.8 22.4s-16 6.4-25.6 3.2c-128-35.2-246.4 60.8-246.4 182.4 0 9.6-3.2 19.2-9.6 22.4-6.4 6.4-16 9.6-25.6 6.4-124.8-16-224-108.8-246.4-230.4-70.4-19.2-131.2-64-166.4-128-16 3.2-32 6.4-48 6.4-115.2 3.2-208-89.6-208-201.6 0-115.2 92.8-208 208-208h105.6c3.2 12.8 9.6 22.4 19.2 32-25.6 28.8-32 73.6-12.8 112 16 28.8 48 48 83.2 48 6.4 0 12.8 0 19.2-3.2 12.8 38.4 48 67.2 92.8 67.2s80-28.8 92.8-67.2c6.4 0 12.8 3.2 19.2 3.2 35.2 0 67.2-19.2 83.2-48 22.4-38.4 16-83.2-12.8-112 9.6-9.6 16-19.2 19.2-32h105.6c115.2 0 208 92.8 208 208 0 57.6-22.4 108.8-60.8 147.2 12.8 38.4 22.4 80 22.4 124.8zM908.8 550.4c-28.8 12.8-57.6 22.4-92.8 22.4-28.8 0-57.6-6.4-83.2-19.2-44.8 92.8-137.6 150.4-243.2 150.4 0 0 0 0 0 0 22.4 73.6 80 131.2 153.6 150.4 22.4-131.2 147.2-230.4 284.8-214.4 0 0 0 0 0-3.2 0-28.8-6.4-57.6-19.2-86.4zM649.6 272c-9.6 16-28.8 19.2-44.8 12.8l-64-35.2v70.4c0 19.2-12.8 32-32 32s-32-12.8-32-32v-73.6l-64 35.2c-16 9.6-35.2 3.2-44.8-12.8s-3.2-35.2 12.8-44.8l64-35.2-64-35.2c-16-9.6-19.2-28.8-12.8-44.8 6.4-9.6 16-16 28.8-16 6.4 0 9.6 0 16 3.2l64 35.2v-67.2c0-19.2 12.8-32 32-32s32 12.8 32 32v73.6l64-35.2c6.4-3.2 9.6-3.2 16-3.2 9.6 0 22.4 6.4 28.8 16 9.6 16 3.2 35.2-12.8 44.8l-60.8 32 64 35.2c12.8 9.6 19.2 28.8 9.6 44.8z" />
<glyph unicode="&#xe620;" glyph-name="weather-glyph_moon-fog" d="M0 128c0-19.2 12.8-32 32-32h320c19.2 0 32 12.8 32 32s-12.8 32-32 32h-320c-19.2 0-32-12.8-32-32zM32 457.6c0-83.2 22.4-163.2 57.6-233.6h262.4c54.4 0 96-41.6 96-96 0-12.8-3.2-22.4-6.4-32h70.4c54.4 0 96-41.6 96-96 0-9.6 0-16-3.2-25.6 182.4 32 336 166.4 387.2 352 3.2 9.6 0 22.4-9.6 32s-19.2 12.8-32 9.6c-38.4-9.6-73.6-16-112-16-233.6 0-422.4 188.8-422.4 422.4 0 35.2 6.4 73.6 16 112 3.2 9.6 0 22.4-9.6 32s-19.2 12.8-32 9.6c-211.2-57.6-358.4-252.8-358.4-470.4zM512 32h-320c-19.2 0-32-12.8-32-32s12.8-32 32-32h320c19.2 0 32 12.8 32 32s-12.8 32-32 32z" />
<glyph unicode="&#xe621;" glyph-name="weather-glyph_moon-full" d="M512 960c-281.6 0-512-230.4-512-512s230.4-512 512-512 512 230.4 512 512-230.4 512-512 512z" />
<glyph unicode="&#xe622;" glyph-name="weather-glyph_moon-stars" d="M422.4 918.4c-6.4 9.6-19.2 12.8-32 9.6-211.2-57.6-358.4-252.8-358.4-470.4 0-272 217.6-489.6 489.6-489.6 220.8 0 412.8 147.2 470.4 358.4 3.2 9.6 0 22.4-9.6 32s-19.2 12.8-32 9.6c-38.4-9.6-73.6-16-112-16-233.6 0-422.4 188.8-422.4 422.4 0 35.2 6.4 73.6 16 112 3.2 12.8 0 25.6-9.6 32zM672 928c-19.2 0-32-12.8-32-32v-32h-32c-19.2 0-32-12.8-32-32s12.8-32 32-32h32v-32c0-19.2 12.8-32 32-32s32 12.8 32 32v32h32c19.2 0 32 12.8 32 32s-12.8 32-32 32h-32v32c0 19.2-12.8 32-32 32zM896 672c-19.2 0-32-12.8-32-32v-32h-32c-19.2 0-32-12.8-32-32s12.8-32 32-32h32v-32c0-19.2 12.8-32 32-32s32 12.8 32 32v32h32c19.2 0 32 12.8 32 32s-12.8 32-32 32h-32v32c0 19.2-12.8 32-32 32z" />
<glyph unicode="&#xe623;" glyph-name="weather-glyph_moon" d="M422.4 918.4c-6.4 9.6-19.2 12.8-32 9.6-211.2-57.6-358.4-252.8-358.4-470.4 0-272 217.6-489.6 489.6-489.6 220.8 0 412.8 147.2 470.4 358.4 3.2 9.6 0 22.4-9.6 32s-19.2 12.8-32 9.6c-38.4-9.6-73.6-16-112-16-233.6 0-422.4 188.8-422.4 422.4 0 35.2 6.4 73.6 16 112 3.2 12.8 0 25.6-9.6 32z" />
<glyph unicode="&#xe624;" glyph-name="weather-glyph_rain-hail" d="M534.4 438.4c-12.8 12.8-32 12.8-44.8 0l-32-32c-12.8-12.8-12.8-32 0-44.8 6.4-6.4 16-9.6 22.4-9.6s16 3.2 22.4 9.6l32 32c12.8 12.8 12.8 32 0 44.8zM617.6 521.6c6.4-6.4 16-9.6 22.4-9.6s16 3.2 22.4 9.6l320 320c12.8 12.8 12.8 32 0 44.8s-32 12.8-44.8 0l-320-320c-12.8-12.8-12.8-32 0-44.8zM64 256c9.6 0 16 3.2 22.4 9.6l32 32c12.8 12.8 12.8 32 0 44.8s-32 12.8-44.8 0l-32-32c-12.8-12.8-12.8-32 0-44.8 6.4-6.4 12.8-9.6 22.4-9.6zM566.4 790.4c-12.8 12.8-32 12.8-44.8 0l-320-320c-12.8-12.8-12.8-32 0-44.8 6.4-6.4 12.8-9.6 22.4-9.6s16 3.2 22.4 9.6l320 320c12.8 12.8 12.8 32 0 44.8zM489.6 118.4l-32-32c-12.8-12.8-12.8-32 0-44.8 6.4-6.4 16-9.6 22.4-9.6s16 3.2 22.4 9.6l32 32c12.8 12.8 12.8 32 0 44.8s-32 12.8-44.8 0zM937.6 566.4l-320-320c-12.8-12.8-12.8-32 0-44.8 6.4-6.4 16-9.6 22.4-9.6s16 3.2 22.4 9.6l320 320c12.8 12.8 12.8 32 0 44.8s-32 12.8-44.8 0z" />
<glyph unicode="&#xe625;" glyph-name="weather-glyph_rain" d="M982.4 886.4c-12.8 12.8-32 12.8-44.8 0l-480-480c-12.8-12.8-12.8-32 0-44.8 6.4-6.4 16-9.6 22.4-9.6s16 3.2 22.4 9.6l480 480c12.8 12.8 12.8 32 0 44.8zM521.6 790.4l-480-480c-12.8-12.8-12.8-32 0-44.8 6.4-6.4 12.8-9.6 22.4-9.6s16 3.2 22.4 9.6l480 480c12.8 12.8 12.8 32 0 44.8s-32 12.8-44.8 0zM937.6 566.4l-480-480c-12.8-12.8-12.8-32 0-44.8 6.4-6.4 16-9.6 22.4-9.6s16 3.2 22.4 9.6l480 480c12.8 12.8 12.8 32 0 44.8s-32 12.8-44.8 0z" />
<glyph unicode="&#xe626;" glyph-name="weather-glyph_rainbow" d="M512 736c-281.6 0-512-230.4-512-512 0-19.2 12.8-32 32-32s32 12.8 32 32c0 246.4 201.6 448 448 448s448-201.6 448-448c0-19.2 12.8-32 32-32s32 12.8 32 32c0 281.6-230.4 512-512 512zM512 560c-185.6 0-336-150.4-336-336 0-19.2 12.8-32 32-32s32 12.8 32 32c0 150.4 121.6 272 272 272s272-121.6 272-272c0-19.2 12.8-32 32-32s32 12.8 32 32c0 185.6-150.4 336-336 336zM412.8 224c0 54.4 44.8 99.2 99.2 99.2s99.2-44.8 99.2-99.2c0-19.2 12.8-32 32-32s32 12.8 32 32c0 89.6-73.6 163.2-163.2 163.2s-163.2-73.6-163.2-163.2c0-19.2 12.8-32 32-32s32 12.8 32 32z" />
<glyph unicode="&#xe627;" glyph-name="weather-glyph_snow" d="M76.8 374.4c-16 3.2-35.2-6.4-38.4-22.4s6.4-35.2 22.4-38.4l105.6-28.8-83.2-48c-19.2-9.6-22.4-28.8-16-44.8 6.4-9.6 16-16 28.8-16 6.4 0 9.6 0 16 3.2l83.2 48-28.8-105.6c-3.2-16 6.4-35.2 22.4-38.4 3.2 0 6.4 0 9.6 0 12.8 0 25.6 9.6 32 22.4l44.8 166.4 204.8 118.4v-236.8l-121.6-121.6c-12.8-12.8-12.8-32 0-44.8s32-12.8 44.8 0l76.8 76.8v-96c0-19.2 12.8-32 32-32s32 12.8 32 32v96l76.8-76.8c6.4-6.4 16-9.6 22.4-9.6s16 3.2 22.4 9.6c12.8 12.8 12.8 32 0 44.8l-121.6 124.8v236.8l204.8-118.4 44.8-166.4c3.2-12.8 16-22.4 32-22.4 3.2 0 6.4 0 9.6 0 16 3.2 25.6 22.4 22.4 38.4l-28.8 105.6 83.2-48c6.4-3.2 9.6-3.2 16-3.2 9.6 0 22.4 6.4 28.8 16 9.6 16 3.2 35.2-12.8 44.8l-83.2 48 105.6 28.8c16 3.2 25.6 22.4 22.4 38.4s-22.4 25.6-38.4 22.4l-166.4-44.8-208 115.2 204.8 118.4 166.4-44.8c3.2 0 6.4 0 9.6 0 12.8 0 25.6 9.6 32 22.4 3.2 16-6.4 35.2-22.4 38.4l-105.6 28.8 83.2 48c16 9.6 19.2 28.8 12.8 44.8-9.6 16-28.8 19.2-44.8 12.8l-83.2-48 28.8 105.6c3.2 16-6.4 35.2-22.4 38.4s-35.2-6.4-38.4-22.4l-44.8-166.4-208-121.6v236.8l121.6 121.6c12.8 12.8 12.8 32 0 44.8s-32 12.8-44.8 0l-76.8-73.6v96c0 19.2-12.8 32-32 32s-32-12.8-32-32v-96l-76.8 76.8c-12.8 12.8-32 12.8-44.8 0s-12.8-32 0-44.8l121.6-124.8v-236.8l-204.8 118.4-44.8 166.4c-3.2 19.2-22.4 28.8-38.4 22.4-19.2-3.2-28.8-22.4-22.4-38.4l28.8-105.6-86.4 51.2c-16 6.4-35.2 3.2-44.8-12.8s-3.2-35.2 12.8-44.8l83.2-48-105.6-28.8c-12.8-3.2-25.6-22.4-19.2-38.4 3.2-12.8 16-22.4 32-22.4 3.2 0 6.4 0 9.6 0l166.4 44.8 201.6-118.4-204.8-118.4-166.4 44.8z" />
<glyph unicode="&#xe628;" glyph-name="weather-glyph_sun-cloud-drop" d="M883.2 531.2c9.6 25.6 12.8 51.2 12.8 76.8 0 124.8-99.2 224-224 224-102.4 0-188.8-67.2-217.6-163.2-83.2-9.6-160-60.8-201.6-134.4-16 3.2-32 6.4-48 6.4-112 0-204.8-92.8-204.8-204.8 0-115.2 92.8-208 208-208h124.8c16 51.2 51.2 108.8 108.8 172.8 19.2 22.4 44.8 35.2 73.6 35.2s54.4-12.8 73.6-35.2c54.4-67.2 92.8-124.8 108.8-172.8h124.8c115.2 0 208 92.8 208 208-6.4 89.6-67.2 166.4-147.2 195.2zM816 540.8c-28.8 0-57.6-6.4-83.2-19.2-41.6 80-118.4 134.4-208 147.2 22.4 57.6 83.2 99.2 147.2 99.2 89.6 0 160-70.4 160-160 0-22.4-6.4-44.8-16-67.2zM512-64c64 0 128 48 128 134.4 0 60.8-67.2 147.2-102.4 188.8-12.8 16-35.2 16-48 0-38.4-41.6-105.6-131.2-105.6-188.8 0-86.4 64-134.4 128-134.4zM640 928v-32c0-19.2 12.8-32 32-32s32 12.8 32 32v32c0 19.2-12.8 32-32 32s-32-12.8-32-32zM899.2 790.4l22.4 22.4c12.8 12.8 12.8 32 0 44.8s-32 12.8-44.8 0l-22.4-22.4c-12.8-12.8-12.8-32 0-44.8 6.4-6.4 16-9.6 22.4-9.6s16 3.2 22.4 9.6zM992 640h-32c-19.2 0-32-12.8-32-32s12.8-32 32-32h32c19.2 0 32 12.8 32 32s-12.8 32-32 32zM422.4 857.6c-12.8-12.8-12.8-32 0-44.8l22.4-22.4c6.4-6.4 16-9.6 22.4-9.6s16 3.2 22.4 9.6c12.8 12.8 12.8 32 0 44.8l-22.4 22.4c-12.8 12.8-32 12.8-44.8 0z" />
<glyph unicode="&#xe629;" glyph-name="weather-glyph_sun-cloud-fog" d="M992 192h-960c-19.2 0-32-12.8-32-32s12.8-32 32-32h960c19.2 0 32 12.8 32 32s-12.8 32-32 32zM896 32c0 19.2-12.8 32-32 32h-704c-19.2 0-32-12.8-32-32s12.8-32 32-32h704c19.2 0 32 12.8 32 32zM883.2 499.2c9.6 25.6 12.8 51.2 12.8 76.8 0 124.8-99.2 224-224 224-102.4 0-188.8-67.2-217.6-163.2-83.2-9.6-160-60.8-201.6-134.4-16 3.2-32 6.4-48 6.4-112 0-204.8-92.8-204.8-204.8 0-6.4 0-12.8 0-16 0-16 16-28.8 32-28.8h960c16 0 32 12.8 32 28.8 0 6.4 0 12.8 0 16 0 89.6-60.8 166.4-140.8 195.2zM816 508.8c-28.8 0-57.6-6.4-83.2-19.2-41.6 80-118.4 134.4-208 147.2 22.4 57.6 83.2 99.2 147.2 99.2 89.6 0 160-70.4 160-160 0-22.4-6.4-44.8-16-67.2zM640 896v-32c0-19.2 12.8-32 32-32s32 12.8 32 32v32c0 19.2-12.8 32-32 32s-32-12.8-32-32zM876.8 748.8c9.6 0 16 3.2 22.4 9.6l22.4 22.4c12.8 12.8 12.8 32 0 44.8s-32 12.8-44.8 0l-22.4-22.4c-12.8-12.8-12.8-32 0-44.8 6.4-6.4 12.8-9.6 22.4-9.6zM992 608h-32c-19.2 0-32-12.8-32-32s12.8-32 32-32h32c19.2 0 32 12.8 32 32s-12.8 32-32 32zM422.4 825.6c-12.8-12.8-12.8-32 0-44.8l22.4-22.4c6.4-6.4 16-9.6 22.4-9.6s16 3.2 22.4 9.6c12.8 12.8 12.8 32 0 44.8l-22.4 22.4c-12.8 12.8-32 12.8-44.8 0z" />
<glyph unicode="&#xe62a;" glyph-name="weather-glyph_sun-cloud-hail" d="M883.2 531.2c9.6 25.6 12.8 51.2 12.8 76.8 0 124.8-99.2 224-224 224-102.4 0-188.8-67.2-217.6-163.2-83.2-9.6-160-60.8-201.6-134.4-16 3.2-32 6.4-48 6.4-112 0-204.8-92.8-204.8-204.8s92.8-208 208-208h611.2c115.2 0 208 92.8 208 208-3.2 89.6-64 166.4-144 195.2zM816 540.8c-28.8 0-57.6-6.4-83.2-19.2-41.6 80-118.4 134.4-208 147.2 22.4 57.6 83.2 99.2 147.2 99.2 89.6 0 160-70.4 160-160 0-22.4-6.4-44.8-16-67.2zM672 960c-19.2 0-32-12.8-32-32v-32c0-19.2 12.8-32 32-32s32 12.8 32 32v32c0 19.2-12.8 32-32 32zM876.8 857.6l-22.4-22.4c-12.8-12.8-12.8-32 0-44.8 6.4-6.4 16-9.6 22.4-9.6s16 3.2 22.4 9.6l22.4 22.4c12.8 12.8 12.8 32 0 44.8s-32 12.8-44.8 0zM992 640h-32c-19.2 0-32-12.8-32-32s12.8-32 32-32h32c19.2 0 32 12.8 32 32s-12.8 32-32 32zM422.4 857.6c-12.8-12.8-12.8-32 0-44.8l22.4-22.4c6.4-6.4 16-9.6 22.4-9.6s16 3.2 22.4 9.6c12.8 12.8 12.8 32 0 44.8l-22.4 22.4c-12.8 12.8-32 12.8-44.8 0zM544-32v32c0 19.2-12.8 32-32 32s-32-12.8-32-32v-32c0-19.2 12.8-32 32-32s32 12.8 32 32zM416 32v32c0 19.2-12.8 32-32 32s-32-12.8-32-32v-32c0-19.2 12.8-32 32-32s32 12.8 32 32zM672 32v32c0 19.2-12.8 32-32 32s-32-12.8-32-32v-32c0-19.2 12.8-32 32-32s32 12.8 32 32z" />
<glyph unicode="&#xe62b;" glyph-name="weather-glyph_sun-cloud-light" d="M640 928v-32c0-19.2 12.8-32 32-32s32 12.8 32 32v32c0 19.2-12.8 32-32 32s-32-12.8-32-32zM899.2 790.4l22.4 22.4c12.8 12.8 12.8 32 0 44.8s-32 12.8-44.8 0l-22.4-22.4c-12.8-12.8-12.8-32 0-44.8 6.4-6.4 16-9.6 22.4-9.6s16 3.2 22.4 9.6zM992 640h-32c-19.2 0-32-12.8-32-32s12.8-32 32-32h32c19.2 0 32 12.8 32 32s-12.8 32-32 32zM422.4 857.6c-12.8-12.8-12.8-32 0-44.8l22.4-22.4c6.4-6.4 16-9.6 22.4-9.6s16 3.2 22.4 9.6c12.8 12.8 12.8 32 0 44.8l-22.4 22.4c-12.8 12.8-32 12.8-44.8 0zM883.2 531.2c9.6 25.6 12.8 51.2 12.8 76.8 0 124.8-99.2 224-224 224-102.4 0-188.8-67.2-217.6-163.2-83.2-9.6-160-60.8-201.6-134.4-16 3.2-32 6.4-48 6.4-112 0-204.8-92.8-204.8-204.8 0-115.2 92.8-208 208-208h150.4c-9.6 25.6-6.4 57.6 6.4 80l96 160c19.2 28.8 51.2 48 83.2 48 16 0 35.2-3.2 48-12.8 22.4-12.8 38.4-35.2 44.8-57.6 6.4-25.6 3.2-51.2-9.6-73.6l-12.8-22.4c19.2-9.6 35.2-22.4 48-41.6 12.8-25.6 16-54.4 6.4-80h150.4c115.2 0 208 92.8 208 208-3.2 89.6-64 166.4-144 195.2zM816 540.8c-28.8 0-57.6-6.4-83.2-19.2-41.6 80-118.4 134.4-208 147.2 22.4 57.6 83.2 99.2 147.2 99.2 89.6 0 160-70.4 160-160 0-22.4-6.4-44.8-16-67.2zM560 348.8c-16 9.6-35.2 3.2-44.8-9.6l-96-160c-6.4-9.6-6.4-22.4 0-32s16-16 28.8-16h70.4l-67.2-112c-9.6-16-3.2-35.2 9.6-44.8 6.4-6.4 12.8-6.4 19.2-6.4 9.6 0 22.4 6.4 28.8 16l96 160c6.4 9.6 6.4 22.4 0 32s-16 16-28.8 16h-70.4l67.2 112c6.4 16 3.2 35.2-12.8 44.8z" />
<glyph unicode="&#xe62c;" glyph-name="weather-glyph_sun-cloud-rain" d="M640 928v-32c0-19.2 12.8-32 32-32s32 12.8 32 32v32c0 19.2-12.8 32-32 32s-32-12.8-32-32zM899.2 790.4l22.4 22.4c12.8 12.8 12.8 32 0 44.8s-32 12.8-44.8 0l-22.4-22.4c-12.8-12.8-12.8-32 0-44.8 6.4-6.4 16-9.6 22.4-9.6s16 3.2 22.4 9.6zM992 640h-32c-19.2 0-32-12.8-32-32s12.8-32 32-32h32c19.2 0 32 12.8 32 32s-12.8 32-32 32zM444.8 790.4c6.4-6.4 16-9.6 22.4-9.6s16 3.2 22.4 9.6c12.8 12.8 12.8 32 0 44.8l-22.4 22.4c-12.8 12.8-32 12.8-44.8 0s-12.8-32 0-44.8l22.4-22.4zM883.2 531.2c9.6 25.6 12.8 51.2 12.8 76.8 0 124.8-99.2 224-224 224-102.4 0-188.8-67.2-217.6-163.2-83.2-9.6-160-60.8-201.6-134.4-16 3.2-32 6.4-48 6.4-112 0-204.8-92.8-204.8-204.8s92.8-208 208-208h144v192c0 19.2 12.8 32 32 32s32-12.8 32-32v-192h64v96c0 19.2 12.8 32 32 32s32-12.8 32-32v-96h64v192c0 19.2 12.8 32 32 32s32-12.8 32-32v-192h144c115.2 0 208 92.8 208 208 0 89.6-60.8 166.4-140.8 195.2zM816 540.8c-28.8 0-57.6-6.4-83.2-19.2-41.6 80-118.4 134.4-208 147.2 22.4 57.6 83.2 99.2 147.2 99.2 89.6 0 160-70.4 160-160 0-22.4-6.4-44.8-16-67.2zM352 64c0-19.2 12.8-32 32-32s32 12.8 32 32v64h-64v-64zM480-32c0-19.2 12.8-32 32-32s32 12.8 32 32v160h-64v-160zM608 64c0-19.2 12.8-32 32-32s32 12.8 32 32v64h-64v-64z" />
<glyph unicode="&#xe62d;" glyph-name="weather-glyph_sun-cloud-snow-54" d="M672 960c-19.2 0-32-12.8-32-32v-32c0-19.2 12.8-32 32-32s32 12.8 32 32v32c0 19.2-12.8 32-32 32zM876.8 780.8c9.6 0 16 3.2 22.4 9.6l22.4 22.4c12.8 12.8 12.8 32 0 44.8s-32 12.8-44.8 0l-22.4-22.4c-12.8-12.8-12.8-32 0-44.8 6.4-6.4 12.8-9.6 22.4-9.6zM992 640h-32c-19.2 0-32-12.8-32-32s12.8-32 32-32h32c19.2 0 32 12.8 32 32s-12.8 32-32 32zM422.4 857.6c-12.8-12.8-12.8-32 0-44.8l22.4-22.4c6.4-6.4 16-9.6 22.4-9.6s16 3.2 22.4 9.6c12.8 12.8 12.8 32 0 44.8l-22.4 22.4c-12.8 12.8-32 12.8-44.8 0zM883.2 531.2c9.6 25.6 12.8 51.2 12.8 76.8 0 124.8-99.2 224-224 224-102.4 0-188.8-67.2-217.6-163.2-83.2-9.6-160-60.8-201.6-134.4-16 3.2-32 6.4-48 6.4-112 0-204.8-92.8-204.8-204.8 0-115.2 92.8-208 208-208h272v32c0 19.2 12.8 32 32 32s32-12.8 32-32v-32h272c115.2 0 208 92.8 208 208 0 89.6-60.8 166.4-140.8 195.2zM416 224c0-19.2-12.8-32-32-32s-32 12.8-32 32v32c0 19.2 12.8 32 32 32s32-12.8 32-32v-32zM672 224c0-19.2-12.8-32-32-32s-32 12.8-32 32v32c0 19.2 12.8 32 32 32s32-12.8 32-32v-32zM816 540.8c-28.8 0-57.6-6.4-83.2-19.2-41.6 80-118.4 134.4-208 147.2 22.4 57.6 83.2 99.2 147.2 99.2 89.6 0 160-70.4 160-160 0-22.4-6.4-44.8-16-67.2zM512 32c-19.2 0-32-12.8-32-32v-32c0-19.2 12.8-32 32-32s32 12.8 32 32v32c0 19.2-12.8 32-32 32zM384 96c-19.2 0-32-12.8-32-32v-32c0-19.2 12.8-32 32-32s32 12.8 32 32v32c0 19.2-12.8 32-32 32zM640 96c-19.2 0-32-12.8-32-32v-32c0-19.2 12.8-32 32-32s32 12.8 32 32v32c0 19.2-12.8 32-32 32z" />
<glyph unicode="&#xe62e;" glyph-name="weather-glyph_sun-cloud-snow-55" d="M640 896v-32c0-19.2 12.8-32 32-32s32 12.8 32 32v32c0 19.2-12.8 32-32 32s-32-12.8-32-32zM876.8 748.8c9.6 0 16 3.2 22.4 9.6l22.4 22.4c12.8 12.8 12.8 32 0 44.8s-32 12.8-44.8 0l-22.4-22.4c-12.8-12.8-12.8-32 0-44.8 6.4-6.4 12.8-9.6 22.4-9.6zM992 608h-32c-19.2 0-32-12.8-32-32s12.8-32 32-32h32c19.2 0 32 12.8 32 32s-12.8 32-32 32zM422.4 825.6c-12.8-12.8-12.8-32 0-44.8l22.4-22.4c6.4-6.4 16-9.6 22.4-9.6s16 3.2 22.4 9.6c12.8 12.8 12.8 32 0 44.8l-22.4 22.4c-12.8 12.8-32 12.8-44.8 0zM883.2 499.2c9.6 25.6 12.8 51.2 12.8 76.8 0 124.8-99.2 224-224 224-102.4 0-188.8-67.2-217.6-163.2-83.2-9.6-160-60.8-201.6-134.4-16 3.2-32 6.4-48 6.4-112 0-204.8-92.8-204.8-204.8 0-115.2 92.8-208 208-208h105.6c3.2 12.8 9.6 22.4 19.2 32-25.6 28.8-32 73.6-12.8 112 16 28.8 48 48 83.2 48 6.4 0 12.8 0 19.2-3.2 12.8 38.4 48 67.2 92.8 67.2s80-28.8 92.8-67.2c6.4 0 12.8 3.2 19.2 3.2 35.2 0 67.2-19.2 83.2-48 22.4-38.4 16-83.2-12.8-112 9.6-9.6 16-19.2 19.2-32h105.6c115.2 0 208 92.8 208 208-6.4 89.6-67.2 166.4-147.2 195.2zM816 508.8c-28.8 0-57.6-6.4-83.2-19.2-41.6 80-118.4 134.4-208 147.2 22.4 57.6 83.2 99.2 147.2 99.2 89.6 0 160-70.4 160-160 0-22.4-6.4-44.8-16-67.2zM649.6 208c-9.6 16-28.8 19.2-44.8 12.8l-64-35.2v70.4c0 19.2-12.8 32-32 32s-32-12.8-32-32v-73.6l-64 35.2c-16 9.6-35.2 3.2-44.8-12.8s-3.2-35.2 12.8-44.8l64-35.2-64-35.2c-16-9.6-19.2-28.8-12.8-44.8 6.4-9.6 16-16 28.8-16 6.4 0 9.6 0 16 3.2l64 35.2v-67.2c0-19.2 12.8-32 32-32s32 12.8 32 32v73.6l64-35.2c6.4-3.2 9.6-3.2 16-3.2 9.6 0 22.4 6.4 28.8 16 9.6 16 3.2 35.2-12.8 44.8l-60.8 32 64 35.2c12.8 9.6 19.2 28.8 9.6 44.8z" />
<glyph unicode="&#xe62f;" glyph-name="weather-glyph_sun-cloud" d="M480 928v-64c0-19.2 12.8-32 32-32s32 12.8 32 32v64c0 19.2-12.8 32-32 32s-32-12.8-32-32zM828.8 809.6l-44.8-44.8c-12.8-12.8-12.8-32 0-44.8 6.4-6.4 16-9.6 22.4-9.6s16 3.2 22.4 9.6l44.8 44.8c12.8 12.8 12.8 32 0 44.8s-32 12.8-44.8 0zM992 480h-64c-19.2 0-32-12.8-32-32s12.8-32 32-32h64c19.2 0 32 12.8 32 32s-12.8 32-32 32zM96 416c19.2 0 32 12.8 32 32s-12.8 32-32 32h-64c-19.2 0-32-12.8-32-32s12.8-32 32-32h64zM150.4 809.6c-12.8-12.8-12.8-32 0-44.8l44.8-44.8c6.4-6.4 16-9.6 22.4-9.6s16 3.2 22.4 9.6c12.8 12.8 12.8 32 0 44.8l-44.8 44.8c-12.8 12.8-32 12.8-44.8 0zM816 348.8c0 0 0 0 0 0 9.6 32 16 64 16 99.2 0 176-144 320-320 320s-320-144-320-320c0-35.2 6.4-67.2 16-99.2 0 0 0 0-3.2 0-112 0-204.8-92.8-204.8-204.8 0-115.2 92.8-208 208-208h611.2c115.2 0 208 92.8 208 208-3.2 112-96 204.8-211.2 204.8zM739.2 332.8c-3.2 0-6.4-3.2-6.4-3.2-44.8 89.6-137.6 150.4-243.2 150.4-89.6 0-169.6-44.8-220.8-112-6.4 25.6-12.8 51.2-12.8 80 0 140.8 115.2 256 256 256s256-115.2 256-256c0-38.4-9.6-80-28.8-115.2z" />
<glyph unicode="&#xe630;" glyph-name="weather-glyph_sun-fog-29" d="M64 256c0-19.2 12.8-32 32-32h832c19.2 0 32 12.8 32 32s-12.8 32-32 32h-832c-19.2 0-32-12.8-32-32zM864 128c0 19.2-12.8 32-32 32h-640c-19.2 0-32-12.8-32-32s12.8-32 32-32h640c19.2 0 32 12.8 32 32zM768 0c0 19.2-12.8 32-32 32h-448c-19.2 0-32-12.8-32-32s12.8-32 32-32h448c19.2 0 32 12.8 32 32zM96 448h-64c-19.2 0-32-12.8-32-32s12.8-32 32-32h64c19.2 0 32 12.8 32 32s-12.8 32-32 32zM195.2 777.6c-12.8 12.8-32 12.8-44.8 0s-12.8-32 0-44.8l44.8-44.8c6.4-6.4 16-9.6 22.4-9.6s16 3.2 22.4 9.6c12.8 12.8 12.8 32 0 44.8l-44.8 44.8zM544 832v64c0 19.2-12.8 32-32 32s-32-12.8-32-32v-64c0-19.2 12.8-32 32-32s32 12.8 32 32zM828.8 688l44.8 44.8c12.8 12.8 12.8 32 0 44.8s-32 12.8-44.8 0l-44.8-44.8c-12.8-12.8-12.8-32 0-44.8 6.4-6.4 16-9.6 22.4-9.6s16 3.2 22.4 9.6zM992 448h-64c-19.2 0-32-12.8-32-32s12.8-32 32-32h64c19.2 0 32 12.8 32 32s-12.8 32-32 32zM224 416c0-19.2 12.8-32 32-32h512c0 0 0 0 0 0 19.2 0 32 12.8 32 32 0 3.2 0 3.2 0 6.4-3.2 156.8-131.2 281.6-288 281.6-160 0-288-128-288-288z" />
<glyph unicode="&#xe631;" glyph-name="weather-glyph_sun-fog-30" d="M992 320h-960c-19.2 0-32-12.8-32-32s12.8-32 32-32h960c19.2 0 32 12.8 32 32s-12.8 32-32 32zM896 160c0 19.2-12.8 32-32 32h-704c-19.2 0-32-12.8-32-32s12.8-32 32-32h704c19.2 0 32 12.8 32 32zM288 64c-19.2 0-32-12.8-32-32s12.8-32 32-32h448c19.2 0 32 12.8 32 32s-12.8 32-32 32h-448zM512 896c-265.6 0-480-214.4-480-480 0-19.2 12.8-32 32-32h896c0 0 0 0 0 0 19.2 0 32 12.8 32 32 0 3.2 0 3.2 0 6.4-3.2 262.4-217.6 473.6-480 473.6z" />
<glyph unicode="&#xe632;" glyph-name="weather-glyph_sun-fog-43" d="M32 384h64c19.2 0 32 12.8 32 32s-12.8 32-32 32h-64c-19.2 0-32-12.8-32-32s12.8-32 32-32zM150.4 732.8l44.8-44.8c6.4-6.4 16-9.6 22.4-9.6s16 3.2 22.4 9.6c12.8 12.8 12.8 32 0 44.8l-44.8 44.8c-12.8 12.8-32 12.8-44.8 0s-12.8-32 0-44.8zM512 928c-19.2 0-32-12.8-32-32v-64c0-19.2 12.8-32 32-32s32 12.8 32 32v64c0 19.2-12.8 32-32 32zM828.8 777.6l-44.8-44.8c-12.8-12.8-12.8-32 0-44.8 6.4-6.4 16-9.6 22.4-9.6s16 3.2 22.4 9.6l44.8 44.8c12.8 12.8 12.8 32 0 44.8s-32 12.8-44.8 0zM992 448h-64c-19.2 0-32-12.8-32-32s12.8-32 32-32h64c19.2 0 32 12.8 32 32s-12.8 32-32 32zM828.8 54.4c6.4-6.4 16-9.6 22.4-9.6s16 3.2 22.4 9.6c12.8 12.8 12.8 32 0 44.8l-44.8 44.8c-12.8 12.8-32 12.8-44.8 0s-12.8-32 0-44.8l44.8-44.8zM800 416c0 160-128 288-288 288s-288-128-288-288c0-57.6 19.2-115.2 48-160h112c54.4 0 96-41.6 96-96 0-9.6-3.2-19.2-6.4-28.8 12.8 0 25.6-3.2 38.4-3.2 160 0 288 128 288 288zM32 160c0-19.2 12.8-32 32-32h320c19.2 0 32 12.8 32 32s-12.8 32-32 32h-320c-19.2 0-32-12.8-32-32zM576 32c0 19.2-12.8 32-32 32h-320c-19.2 0-32-12.8-32-32s12.8-32 32-32h320c19.2 0 32 12.8 32 32z" />
<glyph unicode="&#xe633;" glyph-name="weather-glyph_sun" d="M32 416h64c19.2 0 32 12.8 32 32s-12.8 32-32 32h-64c-19.2 0-32-12.8-32-32s12.8-32 32-32zM195.2 720c6.4-6.4 16-9.6 22.4-9.6s16 3.2 22.4 9.6c12.8 12.8 12.8 32 0 44.8l-44.8 44.8c-12.8 12.8-32 12.8-44.8 0s-12.8-32 0-44.8l44.8-44.8zM512 832c19.2 0 32 12.8 32 32v64c0 19.2-12.8 32-32 32s-32-12.8-32-32v-64c0-19.2 12.8-32 32-32zM806.4 710.4c6.4 0 16 3.2 22.4 9.6l44.8 44.8c12.8 12.8 12.8 32 0 44.8s-32 12.8-44.8 0l-44.8-44.8c-12.8-12.8-12.8-32 0-44.8 6.4-6.4 16-9.6 22.4-9.6zM992 480h-64c-19.2 0-32-12.8-32-32s12.8-32 32-32h64c19.2 0 32 12.8 32 32s-12.8 32-32 32zM828.8 176c-12.8 12.8-32 12.8-44.8 0s-12.8-32 0-44.8l44.8-44.8c6.4-6.4 16-9.6 22.4-9.6s16 3.2 22.4 9.6c12.8 12.8 12.8 32 0 44.8l-44.8 44.8zM480 32v-64c0-19.2 12.8-32 32-32s32 12.8 32 32v64c0 19.2-12.8 32-32 32s-32-12.8-32-32zM172.8 76.8c6.4 0 16 3.2 22.4 9.6l44.8 44.8c12.8 12.8 12.8 32 0 44.8s-32 12.8-44.8 0l-44.8-44.8c-12.8-12.8-12.8-32 0-44.8 6.4-6.4 16-9.6 22.4-9.6zM512 160c160 0 288 128 288 288s-128 288-288 288-288-128-288-288 128-288 288-288z" />
<glyph unicode="&#xe634;" glyph-name="weather-glyph_wind" d="M0 608c0-19.2 12.8-32 32-32h560c89.6 0 163.2 73.6 163.2 163.2s-73.6 163.2-163.2 163.2c-70.4 0-131.2-44.8-153.6-108.8-6.4-16 3.2-35.2 19.2-41.6s35.2 3.2 41.6 19.2c12.8 38.4 51.2 67.2 92.8 67.2 54.4 0 99.2-44.8 99.2-99.2s-44.8-99.2-99.2-99.2h-560c-19.2 0-32-12.8-32-32zM329.6 320h-297.6c-19.2 0-32-12.8-32-32s12.8-32 32-32h297.6c54.4 0 99.2-44.8 99.2-99.2s-44.8-99.2-99.2-99.2c-41.6 0-80 25.6-92.8 67.2-6.4 16-25.6 25.6-41.6 19.2s-25.6-25.6-19.2-41.6c22.4-64 83.2-108.8 153.6-108.8 89.6 0 163.2 73.6 163.2 163.2s-73.6 163.2-163.2 163.2zM860.8 480h-828.8c-19.2 0-32-12.8-32-32s12.8-32 32-32h828.8c54.4 0 99.2-44.8 99.2-99.2s-44.8-99.2-99.2-99.2c-41.6 0-80 25.6-92.8 67.2-6.4 16-25.6 25.6-41.6 19.2s-25.6-25.6-19.2-41.6c22.4-64 83.2-108.8 153.6-108.8 89.6 0 163.2 73.6 163.2 163.2s-73.6 163.2-163.2 163.2z" />
<glyph unicode="&#xe635;" glyph-name="users-glyph_add-27" d="M160 672v-64c0-140.8 115.2-256 256-256s256 115.2 256 256v64c0 140.8-115.2 256-256 256s-256-115.2-256-256zM800 416c-89.6 0-166.4-54.4-201.6-128-6.4 0-12.8 0-22.4 0h-320c-124.8 0-224-99.2-224-224v-64c0-19.2 12.8-32 32-32h736c124.8 0 224 99.2 224 224s-99.2 224-224 224zM800 32c-89.6 0-160 70.4-160 160s70.4 160 160 160 160-70.4 160-160-70.4-160-160-160zM864 224h-32v32c0 19.2-12.8 32-32 32s-32-12.8-32-32v-32h-32c-19.2 0-32-12.8-32-32s12.8-32 32-32h32v-32c0-19.2 12.8-32 32-32s32 12.8 32 32v32h32c19.2 0 32 12.8 32 32s-12.8 32-32 32z" />
<glyph unicode="&#xe636;" glyph-name="users-glyph_add-29" d="M256 672v-64c0-140.8 115.2-256 256-256s256 115.2 256 256v64c0 140.8-115.2 256-256 256s-256-115.2-256-256zM960 128c0-54.4-41.6-96-96-96s-96 41.6-96 96v32h-32c-54.4 0-96 41.6-96 96 0 12.8 3.2 22.4 6.4 32h-326.4c-160 0-288-128-288-288 0-19.2 12.8-32 32-32h896c19.2 0 32 12.8 32 32 0 48-12.8 92.8-32 131.2v-3.2zM992 288h-96v96c0 19.2-12.8 32-32 32s-32-12.8-32-32v-96h-96c-19.2 0-32-12.8-32-32s12.8-32 32-32h96v-96c0-19.2 12.8-32 32-32s32 12.8 32 32v96h96c19.2 0 32 12.8 32 32s-12.8 32-32 32z" />
<glyph unicode="&#xe637;" glyph-name="users-glyph_badge-13" d="M992 864h-128c-19.2 0-32-12.8-32-32 0-35.2-28.8-64-64-64s-64 28.8-64 64c0 19.2-12.8 32-32 32h-64c-19.2 0-32-12.8-32-32 0-35.2-28.8-64-64-64s-64 28.8-64 64c0 19.2-12.8 32-32 32h-64c-19.2 0-32-12.8-32-32 0-35.2-28.8-64-64-64s-64 28.8-64 64c0 19.2-12.8 32-32 32h-128c-19.2 0-32-12.8-32-32v-768c0-19.2 12.8-32 32-32h960c19.2 0 32 12.8 32 32v768c0 19.2-12.8 32-32 32zM224 512c0 54.4 41.6 96 96 96s96-41.6 96-96v-32c0-54.4-41.6-96-96-96s-96 41.6-96 96v32zM448 224c0 0 0 0 0 0h-256c-19.2 0-32 12.8-32 32 0 54.4 41.6 96 96 96h128c51.2 0 92.8-38.4 96-89.6 0-3.2 0-6.4 0-6.4 0-19.2-12.8-32-32-32zM768 288h-160c-19.2 0-32 12.8-32 32s12.8 32 32 32h160c19.2 0 32-12.8 32-32s-12.8-32-32-32zM864 416h-256c-19.2 0-32 12.8-32 32s12.8 32 32 32h256c19.2 0 32-12.8 32-32s-12.8-32-32-32z" />
<glyph unicode="&#xe638;" glyph-name="users-glyph_badge-14" d="M992 864h-128c-19.2 0-32-12.8-32-32 0-35.2-28.8-64-64-64s-64 28.8-64 64c0 19.2-12.8 32-32 32h-64c-19.2 0-32-12.8-32-32 0-35.2-28.8-64-64-64s-64 28.8-64 64c0 19.2-12.8 32-32 32h-64c-19.2 0-32-12.8-32-32 0-35.2-28.8-64-64-64s-64 28.8-64 64c0 19.2-12.8 32-32 32h-128c-19.2 0-32-12.8-32-32v-768c0-19.2 12.8-32 32-32h960c19.2 0 32 12.8 32 32v768c0 19.2-12.8 32-32 32zM480 256c0-19.2-12.8-32-32-32h-256c-19.2 0-32 12.8-32 32v256c0 19.2 12.8 32 32 32h256c19.2 0 32-12.8 32-32v-256zM768 288h-160c-19.2 0-32 12.8-32 32s12.8 32 32 32h160c19.2 0 32-12.8 32-32s-12.8-32-32-32zM864 416h-256c-19.2 0-32 12.8-32 32s12.8 32 32 32h256c19.2 0 32-12.8 32-32s-12.8-32-32-32z" />
<glyph unicode="&#xe639;" glyph-name="users-glyph_badge-15" d="M992 704h-352v96c0 70.4-57.6 128-128 128s-128-57.6-128-128v-96h-352c-19.2 0-32-12.8-32-32v-672c0-19.2 12.8-32 32-32h960c19.2 0 32 12.8 32 32v672c0 19.2-12.8 32-32 32zM480 768c0 19.2 12.8 32 32 32s32-12.8 32-32v-32c0-19.2-12.8-32-32-32s-32 12.8-32 32v32zM384 608c0-19.2 12.8-32 32-32h192c19.2 0 32 12.8 32 32v-64c0-19.2-12.8-32-32-32h-192c-19.2 0-32 12.8-32 32v64zM480 128c0-19.2-12.8-32-32-32h-256c-19.2 0-32 12.8-32 32v256c0 19.2 12.8 32 32 32h256c19.2 0 32-12.8 32-32v-256zM736 160h-160c-19.2 0-32 12.8-32 32s12.8 32 32 32h160c19.2 0 32-12.8 32-32s-12.8-32-32-32zM832 288h-256c-19.2 0-32 12.8-32 32s12.8 32 32 32h256c19.2 0 32-12.8 32-32s-12.8-32-32-32z" />
<glyph unicode="&#xe63a;" glyph-name="users-glyph_circle-08" d="M512 704c-105.6 0-192-86.4-192-192v-96c0-105.6 86.4-192 192-192s192 86.4 192 192v96c0 105.6-86.4 192-192 192zM512 960c-281.6 0-512-230.4-512-512s230.4-512 512-512 512 230.4 512 512-230.4 512-512 512zM774.4 86.4c-54.4 48-124.8 73.6-198.4 73.6h-128c-73.6 0-140.8-25.6-195.2-73.6-115.2 80-188.8 211.2-188.8 361.6 0 246.4 201.6 448 448 448s448-201.6 448-448c0-150.4-73.6-281.6-185.6-361.6z" />
<glyph unicode="&#xe63b;" glyph-name="users-glyph_circle-09" d="M486.4-64c9.6 0 16 0 25.6 0 272 0 499.2 214.4 512 486.4 12.8 284.8-204.8 524.8-486.4 537.6-284.8 12.8-524.8-204.8-537.6-486.4-12.8-284.8 204.8-524.8 486.4-537.6zM512 896c6.4 0 12.8 0 22.4 0 246.4-12.8 435.2-224 425.6-470.4-6.4-112-51.2-211.2-121.6-284.8-25.6 80-92.8 108.8-163.2 134.4-35.2 12.8-54.4 44.8-60.8 73.6 54.4 35.2 89.6 92.8 89.6 163.2v64c0 105.6-86.4 192-192 192s-192-86.4-192-192v-64c0-70.4 35.2-128 92.8-163.2-9.6-32-25.6-64-60.8-73.6-67.2-22.4-137.6-51.2-163.2-131.2-80 86.4-128 201.6-121.6 326.4 9.6 236.8 204.8 425.6 444.8 425.6z" />
<glyph unicode="&#xe63c;" glyph-name="users-glyph_circle-10" d="M512 256c105.6 0 192 86.4 192 192v96c0 105.6-86.4 192-192 192s-192-86.4-192-192v-96c0-105.6 86.4-192 192-192zM512-64c281.6 0 512 230.4 512 512s-230.4 512-512 512-512-230.4-512-512 230.4-512 512-512zM512 896c246.4 0 448-201.6 448-448 0-112-41.6-217.6-112-294.4-6.4 38.4-28.8 70.4-64 89.6l-76.8 44.8c-44.8-60.8-115.2-96-195.2-96s-150.4 35.2-198.4 92.8l-76.8-44.8c-32-19.2-57.6-51.2-64-89.6-67.2 80-108.8 185.6-108.8 297.6 0 246.4 201.6 448 448 448z" />
<glyph unicode="&#xe63d;" glyph-name="users-glyph_contacts" d="M64-64h64c19.2 0 32 12.8 32 32v960c0 19.2-12.8 32-32 32h-64c-19.2 0-32-12.8-32-32v-960c0-19.2 12.8-32 32-32zM960 576c19.2 0 32 12.8 32 32v160c0 19.2-12.8 32-32 32h-64v64c0 54.4-44.8 96-99.2 96h-540.8c-19.2 0-32-12.8-32-32v-960c0-19.2 12.8-32 32-32h540.8c54.4 0 99.2 41.6 99.2 96v288h64c19.2 0 32 12.8 32 32v160c0 19.2-12.8 32-32 32h-64v32h64zM448 576c0 54.4 41.6 96 96 96s96-41.6 96-96v-32c0-54.4-41.6-96-96-96s-96 41.6-96 96v32zM672 288c0 0 0 0 0 0h-256c-19.2 0-32 12.8-32 32 0 54.4 41.6 96 96 96h128c51.2 0 92.8-38.4 96-89.6 0-3.2 0-6.4 0-6.4 0-19.2-12.8-32-32-32z" />
<glyph unicode="&#xe63e;" glyph-name="users-glyph_delete-28" d="M416 928c-140.8 0-256-115.2-256-256v-64c0-140.8 115.2-256 256-256s256 115.2 256 256v64c0 140.8-115.2 256-256 256zM800 416c-89.6 0-166.4-54.4-201.6-128-6.4 0-12.8 0-22.4 0h-320c-124.8 0-224-99.2-224-224v-64c0-19.2 12.8-32 32-32h736c124.8 0 224 99.2 224 224s-99.2 224-224 224zM800 32c-89.6 0-160 70.4-160 160s70.4 160 160 160 160-70.4 160-160-70.4-160-160-160zM864 224h-128c-19.2 0-32-12.8-32-32s12.8-32 32-32h128c19.2 0 32 12.8 32 32s-12.8 32-32 32z" />
<glyph unicode="&#xe63f;" glyph-name="users-glyph_delete-30" d="M512 352c140.8 0 256 115.2 256 256v64c0 140.8-115.2 256-256 256s-256-115.2-256-256v-64c0-140.8 115.2-256 256-256zM736 160c-54.4 0-96 41.6-96 96 0 12.8 3.2 22.4 6.4 32h-326.4c-160 0-288-128-288-288 0-19.2 12.8-32 32-32h896c19.2 0 32 12.8 32 32 0 57.6-19.2 115.2-48 160h-208zM992 288h-256c-19.2 0-32-12.8-32-32s12.8-32 32-32h256c19.2 0 32 12.8 32 32s-12.8 32-32 32z" />
<glyph unicode="&#xe640;" glyph-name="users-glyph_man-20" d="M1004.8 956.8c-3.2 3.2-9.6 3.2-12.8 3.2h-288c-19.2 0-32-12.8-32-32s12.8-32 32-32h211.2l-227.2-227.2c-73.6 60.8-169.6 99.2-272 99.2-230.4 0-416-185.6-416-416s185.6-416 416-416 416 185.6 416 416c0 102.4-38.4 198.4-99.2 268.8l227.2 230.4v-211.2c0-19.2 12.8-32 32-32s32 12.8 32 32v288c0 3.2 0 9.6-3.2 12.8-3.2 6.4-9.6 12.8-16 16zM768 352c0-195.2-156.8-352-352-352s-352 156.8-352 352 156.8 352 352 352 352-156.8 352-352z" />
<glyph unicode="&#xe641;" glyph-name="users-glyph_man-23" d="M579.2 716.8c6.4 12.8 16 19.2 28.8 19.2s22.4-6.4 28.8-19.2c19.2-38.4 67.2-80 131.2-99.2v54.4c0 140.8-115.2 256-256 256s-256-115.2-256-256v-22.4c38.4-28.8 92.8-41.6 128-41.6 89.6 0 163.2 41.6 195.2 108.8zM256 544c0-140.8 115.2-256 256-256s256 115.2 256 256v6.4c-67.2 16-124.8 51.2-160 92.8-48-64-131.2-99.2-224-99.2-32 0-83.2 9.6-128 32v-32zM64 83.2v-83.2c0-19.2 12.8-32 32-32h832c19.2 0 32 12.8 32 32v83.2c0 48-25.6 89.6-67.2 112l-179.2 99.2c-54.4-44.8-124.8-70.4-201.6-70.4s-147.2 25.6-201.6 70.4l-179.2-99.2c-41.6-22.4-67.2-64-67.2-112z" />
<glyph unicode="&#xe642;" glyph-name="users-glyph_man-glasses" d="M892.8 195.2l-179.2 99.2c-54.4-44.8-124.8-70.4-201.6-70.4s-147.2 25.6-201.6 70.4l-179.2-99.2c-41.6-22.4-67.2-64-67.2-112v-83.2c0-19.2 12.8-32 32-32h832c19.2 0 32 12.8 32 32v83.2c0 48-25.6 89.6-67.2 112zM832 656c0 6.4 0 9.6 0 16h-640c0-6.4 0-9.6 0-16 0-96 80-176 176-176 60.8 0 112 28.8 144 73.6 32-44.8 83.2-73.6 144-73.6 96 0 176 80 176 176zM512 928c-118.4 0-217.6-83.2-246.4-192h496c-32 108.8-131.2 192-249.6 192zM512 464c-41.6-32-92.8-48-144-48-32 0-60.8 6.4-86.4 16 41.6-86.4 128-144 230.4-144s188.8 57.6 230.4 144c-25.6-9.6-54.4-16-86.4-16-51.2 0-102.4 16-144 48z" />
<glyph unicode="&#xe643;" glyph-name="users-glyph_mobile-contact" d="M256-64h512c54.4 0 96 41.6 96 96v832c0 54.4-41.6 96-96 96h-512c-54.4 0-96-41.6-96-96v-832c0-54.4 41.6-96 96-96zM512 32c-35.2 0-64 28.8-64 64s28.8 64 64 64 64-28.8 64-64-28.8-64-64-64zM288 800c0 19.2 12.8 32 32 32h384c19.2 0 32-12.8 32-32v-448l-121.6 86.4c16 22.4 25.6 48 25.6 73.6v32c0 70.4-57.6 128-128 128s-128-57.6-128-128v-32c0-28.8 9.6-54.4 25.6-73.6l-121.6-86.4v448z" />
<glyph unicode="&#xe644;" glyph-name="users-glyph_multiple-11" d="M832 640c70.4 0 128 57.6 128 128s-57.6 128-128 128-128-57.6-128-128 57.6-128 128-128zM192 896c-70.4 0-128-57.6-128-128s57.6-128 128-128 128 57.6 128 128-57.6 128-128 128zM96 307.2v-211.2c0-19.2 12.8-32 32-32h160c19.2 0 32 12.8 32 32v89.6l-67.2 67.2c-19.2 16-28.8 41.6-28.8 67.2v256c0 12.8 3.2 22.4 6.4 32h-198.4c-19.2 0-32-12.8-32-32v-160c0-9.6 3.2-16 9.6-22.4l86.4-86.4zM992 608h-198.4c3.2-9.6 6.4-19.2 6.4-32v-256c0-25.6-9.6-51.2-28.8-67.2l-67.2-67.2v-89.6c0-19.2 12.8-32 32-32h160c19.2 0 32 12.8 32 32v211.2l86.4 86.4c6.4 6.4 9.6 12.8 9.6 22.4v160c0 19.2-12.8 32-32 32zM736 320v256c0 19.2-12.8 32-32 32h-384c-19.2 0-32-12.8-32-32v-256c0-9.6 3.2-16 9.6-22.4l86.4-86.4v-243.2c0-19.2 12.8-32 32-32h192c19.2 0 32 12.8 32 32v243.2l86.4 86.4c6.4 6.4 9.6 12.8 9.6 22.4zM672 800c0 89.6-70.4 160-160 160s-160-70.4-160-160 70.4-160 160-160 160 70.4 160 160z" />
<glyph unicode="&#xe645;" glyph-name="users-glyph_multiple-19" d="M992 288v166.4c0 35.2-19.2 67.2-48 83.2l-108.8 60.8c19.2 25.6 32 54.4 32 86.4v64c-3.2 83.2-67.2 147.2-147.2 147.2-54.4 0-99.2-28.8-124.8-73.6 48-44.8 76.8-112 76.8-182.4v-96c0-48-12.8-92.8-38.4-134.4l156.8-105.6c6.4-6.4 16-12.8 22.4-19.2h179.2zM800 172.8c0 32-16 60.8-41.6 80l-217.6 144c41.6 35.2 67.2 86.4 67.2 147.2v96c0 105.6-86.4 192-192 192s-192-86.4-192-192v-96c0-57.6 25.6-112 67.2-147.2v0l-217.6-144c-25.6-19.2-41.6-48-41.6-80v-172.8h768v172.8z" />
<glyph unicode="&#xe646;" glyph-name="users-glyph_network" d="M128 544c22.4 0 44.8 6.4 64 19.2l73.6-73.6c6.4-6.4 12.8-9.6 22.4-9.6s16 3.2 22.4 9.6c12.8 12.8 12.8 32 0 44.8l-73.6 73.6c12.8 19.2 19.2 41.6 19.2 64 0 70.4-57.6 128-128 128s-128-57.6-128-128 57.6-128 128-128zM512 576c19.2 0 32 12.8 32 32v99.2c54.4 12.8 96 64 96 124.8 0 70.4-57.6 128-128 128s-128-57.6-128-128c0-60.8 41.6-108.8 96-124.8v-99.2c0-19.2 12.8-32 32-32zM896 800c-70.4 0-128-57.6-128-128 0-22.4 6.4-44.8 19.2-64l-73.6-73.6c-12.8-12.8-12.8-32 0-44.8 6.4-6.4 16-9.6 22.4-9.6s16 3.2 22.4 9.6l73.6 73.6c19.2-12.8 41.6-19.2 64-19.2 70.4 0 128 57.6 128 128s-57.6 128-128 128zM512 512c-105.6 0-192-86.4-192-192v-32c0-105.6 86.4-192 192-192s192 86.4 192 192v32c0 105.6-86.4 192-192 192zM512 32c-86.4 0-163.2 44.8-211.2 108.8l-92.8-48c-9.6-6.4-16-16-16-28.8v-96c0-19.2 12.8-32 32-32h576c19.2 0 32 12.8 32 32v96c0 12.8-6.4 22.4-16 28.8l-92.8 48c-48-64-124.8-108.8-211.2-108.8z" />
<glyph unicode="&#xe647;" glyph-name="users-glyph_parent" d="M864 704v32c0 105.6-86.4 192-192 192s-192-86.4-192-192v-32c0-76.8 44.8-140.8 108.8-172.8v0l-57.6-35.2c9.6-25.6 12.8-51.2 12.8-80v-32c0-57.6-19.2-115.2-54.4-160l60.8-51.2c38.4-32 57.6-76.8 57.6-124.8v-80h384v361.6c0 32-16 64-44.8 80l-192 118.4c64 35.2 108.8 99.2 108.8 176zM67.2 124.8c-22.4-19.2-35.2-44.8-35.2-73.6v-83.2h512v83.2c0 28.8-12.8 54.4-35.2 73.6l-118.4 96c54.4 35.2 89.6 96 89.6 163.2v32c0 105.6-86.4 192-192 192s-192-86.4-192-192v-32c0-67.2 35.2-128 89.6-163.2v0l-118.4-96z" />
<glyph unicode="&#xe648;" glyph-name="users-glyph_single-01" d="M512 352c140.8 0 256 115.2 256 256v64c0 140.8-115.2 256-256 256s-256-115.2-256-256v-64c0-140.8 115.2-256 256-256zM64-32h896c19.2 0 32 12.8 32 32 0 160-128 288-288 288h-384c-160 0-288-128-288-288 0-19.2 12.8-32 32-32z" />
<glyph unicode="&#xe649;" glyph-name="users-glyph_single-02" d="M512 352c140.8 0 256 115.2 256 256v64c0 140.8-115.2 256-256 256s-256-115.2-256-256v-64c0-140.8 115.2-256 256-256zM160-32h704c19.2 0 32 12.8 32 32v64c0 124.8-99.2 224-224 224h-320c-124.8 0-224-99.2-224-224v-64c0-19.2 12.8-32 32-32z" />
<glyph unicode="&#xe64a;" glyph-name="users-glyph_single-03" d="M512 288c140.8 0 256 115.2 256 256v128c0 140.8-115.2 256-256 256s-256-115.2-256-256v-128c0-140.8 115.2-256 256-256zM67.2-32h892.8c19.2 0 35.2 16 32 35.2-16 147.2-121.6 268.8-262.4 304-57.6-51.2-134.4-83.2-217.6-83.2s-160 32-214.4 83.2c-140.8-35.2-246.4-156.8-262.4-304-3.2-19.2 12.8-35.2 32-35.2z" />
<glyph unicode="&#xe64b;" glyph-name="users-glyph_single-04" d="M512 352c140.8 0 256 115.2 256 256v96c0 140.8-115.2 256-256 256s-256-115.2-256-256v-96c0-140.8 115.2-256 256-256zM64-64h896c19.2 0 32 12.8 32 32 0 195.2-115.2 249.6-246.4 291.2-38.4 12.8-64 38.4-80 67.2-44.8-25.6-99.2-38.4-153.6-38.4s-108.8 12.8-153.6 38.4c-16-28.8-41.6-54.4-80-67.2-131.2-41.6-246.4-96-246.4-291.2 0-19.2 12.8-32 32-32z" />
<glyph unicode="&#xe64c;" glyph-name="users-glyph_single-05" d="M512 288c140.8 0 256 115.2 256 256v128c0 140.8-115.2 256-256 256s-256-115.2-256-256v-128c0-140.8 115.2-256 256-256zM96-32h832c19.2 0 32 12.8 32 32v83.2c0 48-25.6 89.6-67.2 112l-179.2 99.2c-54.4-44.8-124.8-70.4-201.6-70.4s-147.2 25.6-201.6 70.4l-179.2-99.2c-41.6-22.4-67.2-64-67.2-112v-83.2c0-19.2 12.8-32 32-32z" />
<glyph unicode="&#xe64d;" glyph-name="users-glyph_single-body" d="M384 211.2v-243.2c0-19.2 12.8-32 32-32h192c19.2 0 32 12.8 32 32v243.2l86.4 86.4c6.4 6.4 9.6 12.8 9.6 22.4v224c0 19.2-12.8 32-32 32h-384c-19.2 0-32-12.8-32-32v-224c0-9.6 3.2-16 9.6-22.4l86.4-86.4zM512 640c89.6 0 160 70.4 160 160s-70.4 160-160 160-160-70.4-160-160 70.4-160 160-160z" />
<glyph unicode="&#xe64e;" glyph-name="users-glyph_single-position" d="M384 339.2v-243.2c0-19.2 12.8-32 32-32h192c19.2 0 32 12.8 32 32v243.2l86.4 86.4c6.4 6.4 9.6 12.8 9.6 22.4v128c0 19.2-12.8 32-32 32h-384c-19.2 0-32-12.8-32-32v-128c0-9.6 3.2-16 9.6-22.4l86.4-86.4zM512 640c89.6 0 160 70.4 160 160s-70.4 160-160 160-160-70.4-160-160 70.4-160 160-160zM512-64c179.2 0 480 28.8 480 144 0 83.2-166.4 118.4-288 134.4v-64c147.2-19.2 217.6-51.2 224-67.2-9.6-28.8-160-80-416-80s-406.4 48-416 76.8c6.4 16 76.8 51.2 224 70.4v64c-121.6-12.8-288-48-288-134.4 0-115.2 300.8-144 480-144z" />
<glyph unicode="&#xe64f;" glyph-name="users-glyph_square-31" d="M512 256c105.6 0 192 86.4 192 192v96c0 105.6-86.4 192-192 192s-192-86.4-192-192v-96c0-105.6 86.4-192 192-192zM992 960h-960c-19.2 0-32-12.8-32-32v-960c0-19.2 12.8-32 32-32h960c19.2 0 32 12.8 32 32v960c0 19.2-12.8 32-32 32zM960 0h-67.2c-16 108.8-108.8 192-220.8 192h-320c-112 0-204.8-83.2-220.8-192h-67.2v896h896v-896z" />
<glyph unicode="&#xe650;" glyph-name="users-glyph_square-32" d="M992 960h-960c-19.2 0-32-12.8-32-32v-960c0-19.2 12.8-32 32-32h960c19.2 0 32 12.8 32 32v960c0 19.2-12.8 32-32 32zM960 0h-96v35.2c-6.4 118.4-89.6 144-166.4 169.6l-22.4 6.4c-35.2 12.8-54.4 44.8-60.8 73.6 54.4 35.2 89.6 92.8 89.6 163.2v64c0 105.6-86.4 192-192 192s-192-86.4-192-192v-64c0-70.4 35.2-128 92.8-163.2-9.6-32-25.6-64-60.8-73.6l-22.4-6.4c-80-25.6-160-51.2-166.4-169.6v-32h-99.2v892.8h896v-896z" />
<glyph unicode="&#xe651;" glyph-name="users-glyph_square-33" d="M512 256c105.6 0 192 86.4 192 192v96c0 105.6-86.4 192-192 192s-192-86.4-192-192v-96c0-105.6 86.4-192 192-192zM992 960h-960c-19.2 0-32-12.8-32-32v-960c0-19.2 12.8-32 32-32h960c19.2 0 32 12.8 32 32v960c0 19.2-12.8 32-32 32zM960 0h-96v115.2c0 60.8-32 115.2-86.4 144l-64 32c-48-57.6-118.4-96-201.6-96s-153.6 38.4-201.6 96l-64-32c-54.4-32-86.4-86.4-86.4-144v-115.2h-96v896h896v-896z" />
<glyph unicode="&#xe652;" glyph-name="users-glyph_woman-21" d="M896 576c0 211.2-172.8 384-384 384s-384-172.8-384-384c0-201.6 156.8-364.8 352-384v-64h-96c-19.2 0-32-12.8-32-32s12.8-32 32-32h96v-96c0-19.2 12.8-32 32-32s32 12.8 32 32v96h96c19.2 0 32 12.8 32 32s-12.8 32-32 32h-96v64c195.2 19.2 352 182.4 352 384zM512 256c-176 0-320 144-320 320s144 320 320 320 320-144 320-320-144-320-320-320z" />
<glyph unicode="&#xe653;" glyph-name="users-glyph_woman-24" d="M579.2 716.8c6.4 12.8 16 19.2 28.8 19.2s22.4-6.4 28.8-19.2c19.2-38.4 67.2-80 131.2-99.2v44.8c0 137.6-102.4 256-240 265.6-147.2 9.6-272-108.8-272-256v-22.4c38.4-28.8 92.8-41.6 128-41.6 89.6 0 163.2 41.6 195.2 108.8zM892.8 195.2l-3.2 3.2c32 28.8 54.4 67.2 67.2 112 3.2 16-6.4 32-19.2 38.4-86.4 28.8-153.6 115.2-163.2 201.6-67.2 16-124.8 51.2-160 92.8-48-64-131.2-99.2-224-99.2-32 0-83.2 9.6-128 32v-32c0-89.6 48-169.6 118.4-214.4 38.4-25.6 86.4-41.6 137.6-41.6s99.2 16 137.6 41.6v0l60.8-35.2c-57.6-44.8-128-70.4-204.8-70.4s-147.2 25.6-201.6 70.4l-179.2-99.2c-41.6-22.4-67.2-64-67.2-112v-83.2c0-19.2 12.8-32 32-32h832c19.2 0 32 12.8 32 32v83.2c0 48-25.6 89.6-67.2 112z" />
<glyph unicode="&#xe654;" glyph-name="users-glyph_woman-25" d="M579.2 716.8c6.4 12.8 16 19.2 28.8 19.2s22.4-6.4 28.8-19.2c19.2-38.4 67.2-80 131.2-99.2v54.4c0 140.8-115.2 256-256 256s-256-115.2-256-256v-22.4c38.4-28.8 92.8-41.6 128-41.6 89.6 0 163.2 41.6 195.2 108.8zM892.8 195.2l-3.2 3.2c32 28.8 54.4 67.2 67.2 112 3.2 16-6.4 32-19.2 38.4-89.6 28.8-153.6 115.2-166.4 201.6-67.2 16-124.8 51.2-160 92.8-48-64-131.2-99.2-224-99.2-32 0-83.2 9.6-128 32v0c0-96-70.4-195.2-166.4-227.2-16-6.4-25.6-22.4-19.2-38.4 9.6-44.8 32-83.2 67.2-112v0l-3.2-3.2c-41.6-22.4-67.2-64-67.2-112v-83.2c0-19.2 12.8-32 32-32h832c19.2 0 32 12.8 32 32v83.2c-6.4 48-32 89.6-73.6 112zM512 224c-76.8 0-147.2 25.6-201.6 70.4l60.8 35.2c38.4-25.6 86.4-41.6 137.6-41.6s99.2 16 137.6 41.6v0l60.8-35.2c-48-44.8-118.4-70.4-195.2-70.4z" />
<glyph unicode="&#xe655;" glyph-name="users-glyph_woman-34" d="M441.6 755.2l54.4-83.2h272c0 140.8-115.2 256-256 256s-256-115.2-256-256h80l54.4 83.2c9.6 16 41.6 16 51.2 0zM892.8 195.2l-3.2 3.2c32 28.8 54.4 67.2 67.2 112 3.2 16-6.4 32-19.2 38.4-96 32-166.4 131.2-166.4 227.2v32h-288c-9.6 0-19.2 6.4-25.6 12.8l-41.6 57.6-38.4-57.6c-6.4-6.4-16-12.8-25.6-12.8h-96v-64c0-89.6 48-169.6 118.4-214.4 38.4-25.6 86.4-41.6 137.6-41.6s99.2 16 137.6 41.6v0l60.8-35.2c-51.2-44.8-121.6-70.4-198.4-70.4s-147.2 25.6-201.6 70.4l-179.2-99.2c-41.6-22.4-67.2-64-67.2-112v-83.2c0-19.2 12.8-32 32-32h832c19.2 0 32 12.8 32 32v83.2c0 48-25.6 89.6-67.2 112z" />
<glyph unicode="&#xe656;" glyph-name="users-glyph_woman-35" d="M441.6 755.2l54.4-83.2h272c0 140.8-115.2 256-256 256s-256-115.2-256-256h80l54.4 83.2c9.6 16 41.6 16 51.2 0zM892.8 195.2l-3.2 3.2c32 28.8 54.4 67.2 67.2 112 3.2 16-6.4 32-19.2 38.4-96 32-166.4 131.2-166.4 227.2v32h-288c-9.6 0-19.2 6.4-25.6 12.8l-41.6 57.6-38.4-57.6c-6.4-6.4-16-12.8-25.6-12.8h-96v-32c0-96-70.4-195.2-166.4-227.2-16-6.4-25.6-22.4-19.2-38.4 9.6-44.8 32-83.2 67.2-112v0l-3.2-3.2c-41.6-22.4-67.2-64-67.2-112v-83.2c0-19.2 12.8-32 32-32h832c19.2 0 32 12.8 32 32v83.2c-3.2 48-28.8 89.6-70.4 112zM512 224c-76.8 0-147.2 25.6-201.6 70.4l60.8 35.2c38.4-25.6 86.4-41.6 137.6-41.6s99.2 16 137.6 41.6v0l60.8-35.2c-48-44.8-118.4-70.4-195.2-70.4z" />
<glyph unicode="&#xe657;" glyph-name="users-glyph_woman-man" d="M1004.8 956.8c-3.2 3.2-9.6 3.2-12.8 3.2h-160c-19.2 0-32-12.8-32-32s12.8-32 32-32h83.2l-128-128c-48 38.4-112 64-179.2 64-57.6 0-115.2-19.2-160-48-44.8 28.8-102.4 48-160 48-160 0-288-128-288-288 0-147.2 112-268.8 256-284.8v-131.2h-64c-19.2 0-32-12.8-32-32s12.8-32 32-32h64v-64c0-19.2 12.8-32 32-32s32 12.8 32 32v64h64c19.2 0 32 12.8 32 32s-12.8 32-32 32h-64v131.2c48 6.4 89.6 22.4 128 48 44.8-32 102.4-48 160-48 160 0 288 128 288 288 0 67.2-22.4 131.2-64 179.2l128 128v-86.4c0-19.2 12.8-32 32-32s32 12.8 32 32v160c0 3.2 0 9.6-3.2 12.8-3.2 6.4-9.6 12.8-16 16zM448 387.2c-38.4 41.6-64 96-64 156.8s25.6 115.2 64 156.8c38.4-41.6 64-96 64-156.8s-25.6-115.2-64-156.8zM288 320c-124.8 0-224 99.2-224 224s99.2 224 224 224c38.4 0 76.8-9.6 108.8-28.8-48-51.2-76.8-118.4-76.8-195.2s28.8-144 76.8-195.2c-32-19.2-70.4-28.8-108.8-28.8zM608 320c-38.4 0-76.8 9.6-108.8 28.8 48 51.2 76.8 121.6 76.8 195.2 0 76.8-28.8 144-76.8 195.2 32 19.2 70.4 28.8 108.8 28.8 124.8 0 224-99.2 224-224s-99.2-224-224-224z" />
<glyph unicode="&#xe658;" glyph-name="ui-glyph-1_analytics-88" d="M992 960h-960c-19.2 0-32-12.8-32-32v-448h236.8l118.4 236.8c9.6 22.4 44.8 22.4 57.6 0l227.2-454.4 99.2 198.4c6.4 9.6 16 19.2 28.8 19.2h256v448c0 19.2-12.8 32-32 32zM668.8 179.2c-6.4-12.8-16-19.2-28.8-19.2s-22.4 6.4-28.8 19.2l-227.2 454.4-99.2-198.4c-6.4-12.8-16-19.2-28.8-19.2h-256v-448c0-19.2 12.8-32 32-32h960c19.2 0 32 12.8 32 32v448h-236.8l-118.4-236.8z" />
<glyph unicode="&#xe659;" glyph-name="ui-glyph-1_analytics-89" d="M230.4 480l121.6 243.2c9.6 22.4 48 22.4 57.6 0l233.6-467.2 102.4 204.8c6.4 9.6 16 19.2 28.8 19.2h249.6c-19.2 268.8-240 480-512 480s-492.8-211.2-508.8-480h227.2zM512-64c272 0 492.8 211.2 508.8 480h-227.2l-121.6-243.2c-6.4-9.6-16-19.2-28.8-19.2s-22.4 6.4-28.8 19.2l-233.6 467.2-102.4-204.8c-6.4-12.8-16-19.2-28.8-19.2h-246.4c16-268.8 236.8-480 508.8-480z" />
<glyph unicode="&#xe65a;" glyph-name="ui-glyph-1_attach-86" d="M416 736c-19.2 0-32-12.8-32-32v-416c0-70.4 57.6-128 128-128s128 57.6 128 128v432c0 115.2-92.8 208-208 208s-208-92.8-208-208v-464c0-160 128-288 288-288s288 128 288 288v448c0 19.2-12.8 32-32 32s-32-12.8-32-32v-448c0-124.8-99.2-224-224-224s-224 99.2-224 224v464c0 80 64 144 144 144s144-64 144-144v-432c0-35.2-28.8-64-64-64s-64 28.8-64 64v416c0 19.2-12.8 32-32 32z" />
<glyph unicode="&#xe65b;" glyph-name="ui-glyph-1_attach-87" d="M662.4 659.2c12.8 12.8 12.8 32 0 44.8s-32 12.8-44.8 0l-294.4-294.4c-25.6-25.6-38.4-57.6-38.4-92.8s12.8-67.2 38.4-89.6c48-48 131.2-48 182.4 0l304 304c80 80 80 214.4 0 294.4-38.4 38.4-92.8 60.8-147.2 60.8s-108.8-22.4-147.2-60.8l-326.4-326.4c-54.4-54.4-83.2-128-83.2-204.8s28.8-150.4 83.2-204.8c57.6-57.6 131.2-83.2 204.8-83.2s147.2 28.8 204.8 83.2l316.8 316.8c12.8 12.8 12.8 32 0 44.8s-32 12.8-44.8 0l-316.8-316.8c-86.4-86.4-230.4-86.4-316.8 0-41.6 41.6-67.2 99.2-67.2 160s22.4 115.2 67.2 156.8l323.2 329.6c25.6 28.8 64 41.6 102.4 41.6s73.6-16 102.4-41.6c57.6-57.6 57.6-147.2 0-204.8l-304-304c-25.6-25.6-67.2-25.6-89.6 0-12.8 12.8-19.2 28.8-19.2 44.8s6.4 32 19.2 44.8l291.2 297.6z" />
<glyph unicode="&#xe65c;" glyph-name="ui-glyph-1_bell-53" d="M956.8 147.2c6.4 9.6 3.2 25.6-3.2 35.2 0 0-121.6 150.4-121.6 300.8v128c0 176-144 320-320 320s-320-147.2-320-323.2v-128c0-150.4-118.4-297.6-121.6-300.8-6.4-9.6-9.6-22.4-3.2-35.2 6.4-9.6 16-16 28.8-16h832c12.8 0 22.4 6.4 28.8 19.2zM512-32c60.8 0 108.8 41.6 124.8 96h-246.4c12.8-54.4 60.8-96 121.6-96z" />
<glyph unicode="&#xe65d;" glyph-name="ui-glyph-1_bell-54" d="M864 371.2v204.8c0 195.2-156.8 352-352 352s-352-156.8-352-352v-204.8c-96-51.2-160-144-160-243.2 0 0 0 0 0 0s0 0 0 0c0-118.4 304-160 512-160s512 41.6 512 160c0 0 0 0 0 0s0 0 0 0c0 99.2-64 192-160 243.2zM512 32c-288 0-444.8 67.2-448 96 0 22.4 102.4 70.4 291.2 89.6 16-70.4 80-121.6 153.6-121.6s137.6 51.2 153.6 121.6c188.8-19.2 291.2-67.2 291.2-89.6 3.2-28.8-153.6-96-441.6-96z" />
<glyph unicode="&#xe65e;" glyph-name="ui-glyph-1_bell-55" d="M947.2 230.4c0 83.2-115.2 105.6-115.2 249.6 0 70.4 0 131.2 0 131.2 0 169.6-150.4 316.8-320 316.8s-320-150.4-320-320c0 0 0-57.6 0-128 0-144-115.2-169.6-115.2-249.6 0-73.6 169.6-131.2 435.2-131.2s435.2 57.6 435.2 131.2zM361.6 41.6c22.4-60.8 80-105.6 150.4-105.6s128 44.8 150.4 105.6c-48-3.2-96-6.4-150.4-6.4s-105.6 3.2-150.4 6.4z" />
<glyph unicode="&#xe65f;" glyph-name="ui-glyph-1_bold-add" d="M960 576h-320v320c0 19.2-12.8 32-32 32h-192c-19.2 0-32-12.8-32-32v-320h-320c-19.2 0-32-12.8-32-32v-192c0-19.2 12.8-32 32-32h320v-320c0-19.2 12.8-32 32-32h192c19.2 0 32 12.8 32 32v320h320c19.2 0 32 12.8 32 32v192c0 19.2-12.8 32-32 32z" />
<glyph unicode="&#xe660;" glyph-name="ui-glyph-1_bold-delete" d="M960 576h-896c-19.2 0-32-12.8-32-32v-192c0-19.2 12.8-32 32-32h896c19.2 0 32 12.8 32 32v192c0 19.2-12.8 32-32 32z" />
<glyph unicode="&#xe661;" glyph-name="ui-glyph-1_bold-remove" d="M918.4 726.4l-128 128c-12.8 12.8-32 12.8-44.8 0l-233.6-233.6-233.6 233.6c-12.8 12.8-32 12.8-44.8 0l-128-128c-12.8-12.8-12.8-32 0-44.8l233.6-233.6-233.6-233.6c-12.8-12.8-12.8-32 0-44.8l128-128c12.8-12.8 32-12.8 44.8 0l233.6 233.6 233.6-233.6c6.4-6.4 16-9.6 22.4-9.6s16 3.2 22.4 9.6l128 128c12.8 12.8 12.8 32 0 44.8l-233.6 233.6 233.6 233.6c12.8 12.8 12.8 32 0 44.8z" />
<glyph unicode="&#xe662;" glyph-name="ui-glyph-1_bookmark-add" d="M80 3.2c9.6-6.4 22.4-6.4 32 0l304 182.4 304-182.4c3.2-3.2 9.6-3.2 16-3.2s9.6 0 16 3.2c9.6 6.4 16 16 16 28.8v163.2c108.8 16 192 108.8 192 220.8s-83.2 204.8-192 220.8v291.2c0 19.2-12.8 32-32 32h-640c-19.2 0-32-12.8-32-32v-896c0-12.8 6.4-22.4 16-28.8zM736 576c89.6 0 160-70.4 160-160s-70.4-160-160-160-160 70.4-160 160 70.4 160 160 160zM672 384h32v-32c0-19.2 12.8-32 32-32s32 12.8 32 32v32h32c19.2 0 32 12.8 32 32s-12.8 32-32 32h-32v32c0 19.2-12.8 32-32 32s-32-12.8-32-32v-32h-32c-19.2 0-32-12.8-32-32s12.8-32 32-32z" />
<glyph unicode="&#xe663;" glyph-name="ui-glyph-1_bookmark-remove" d="M736 960h-640c-19.2 0-32-12.8-32-32v-896c0-12.8 6.4-22.4 16-28.8s22.4-6.4 32 0l304 182.4 304-182.4c3.2-3.2 9.6-3.2 16-3.2s9.6 0 16 3.2c9.6 6.4 16 16 16 28.8v163.2c108.8 16 192 108.8 192 220.8s-83.2 204.8-192 220.8v291.2c0 19.2-12.8 32-32 32zM896 416c0-89.6-70.4-160-160-160s-160 70.4-160 160 70.4 160 160 160 160-70.4 160-160zM640 416c0-19.2 12.8-32 32-32h128c19.2 0 32 12.8 32 32s-12.8 32-32 32h-128c-19.2 0-32-12.8-32-32z" />
<glyph unicode="&#xe664;" glyph-name="ui-glyph-1_calendar-57" d="M992 864h-192v64c0 19.2-12.8 32-32 32s-32-12.8-32-32v-64h-192v64c0 19.2-12.8 32-32 32s-32-12.8-32-32v-64h-192v64c0 19.2-12.8 32-32 32s-32-12.8-32-32v-64h-192c-19.2 0-32-12.8-32-32v-128h1024v128c0 19.2-12.8 32-32 32zM0-32c0-19.2 12.8-32 32-32h960c19.2 0 32 12.8 32 32v672h-1024v-672z" />
<glyph unicode="&#xe665;" glyph-name="ui-glyph-1_calendar-60" d="M992 864h-160v64c0 19.2-12.8 32-32 32h-96c-19.2 0-32-12.8-32-32v-64h-320v64c0 19.2-12.8 32-32 32h-96c-19.2 0-32-12.8-32-32v-64h-160c-19.2 0-32-12.8-32-32v-192h1024v192c0 19.2-12.8 32-32 32zM320 736h-96c-19.2 0-32 12.8-32 32s12.8 32 32 32h96c19.2 0 32-12.8 32-32s-12.8-32-32-32zM800 736h-96c-19.2 0-32 12.8-32 32s12.8 32 32 32h96c19.2 0 32-12.8 32-32s-12.8-32-32-32zM0-32c0-19.2 12.8-32 32-32h960c19.2 0 32 12.8 32 32v608h-1024v-608z" />
<glyph unicode="&#xe666;" glyph-name="ui-glyph-1_calendar-check-59" d="M992 864h-192v64c0 19.2-12.8 32-32 32s-32-12.8-32-32v-64h-192v64c0 19.2-12.8 32-32 32s-32-12.8-32-32v-64h-192v64c0 19.2-12.8 32-32 32s-32-12.8-32-32v-64h-192c-19.2 0-32-12.8-32-32v-128h1024v128c0 19.2-12.8 32-32 32zM0-32c0-19.2 12.8-32 32-32h960c19.2 0 32 12.8 32 32v672h-1024v-672zM297.6 310.4c12.8 12.8 32 12.8 44.8 0l105.6-105.6 233.6 233.6c12.8 12.8 32 12.8 44.8 0s12.8-32 0-44.8l-256-256c-6.4-6.4-12.8-9.6-22.4-9.6s-16 3.2-22.4 9.6l-128 128c-12.8 12.8-12.8 32 0 44.8z" />
<glyph unicode="&#xe667;" glyph-name="ui-glyph-1_calendar-check-62" d="M992 864h-160v64c0 19.2-12.8 32-32 32h-96c-19.2 0-32-12.8-32-32v-64h-320v64c0 19.2-12.8 32-32 32h-96c-19.2 0-32-12.8-32-32v-64h-160c-19.2 0-32-12.8-32-32v-192h1024v192c0 19.2-12.8 32-32 32zM320 736h-96c-19.2 0-32 12.8-32 32s12.8 32 32 32h96c19.2 0 32-12.8 32-32s-12.8-32-32-32zM800 736h-96c-19.2 0-32 12.8-32 32s12.8 32 32 32h96c19.2 0 32-12.8 32-32s-12.8-32-32-32zM0-32c0-19.2 12.8-32 32-32h960c19.2 0 32 12.8 32 32v608h-1024v-608zM297.6 310.4c12.8 12.8 32 12.8 44.8 0l105.6-105.6 233.6 233.6c12.8 12.8 32 12.8 44.8 0s12.8-32 0-44.8l-256-256c-6.4-6.4-12.8-9.6-22.4-9.6s-16 3.2-22.4 9.6l-128 128c-12.8 12.8-12.8 32 0 44.8z" />
<glyph unicode="&#xe668;" glyph-name="ui-glyph-1_calendar-grid-58" d="M992 864h-192v64c0 19.2-12.8 32-32 32s-32-12.8-32-32v-64h-192v64c0 19.2-12.8 32-32 32s-32-12.8-32-32v-64h-192v64c0 19.2-12.8 32-32 32s-32-12.8-32-32v-64h-192c-19.2 0-32-12.8-32-32v-128h1024v128c0 19.2-12.8 32-32 32zM0-32c0-19.2 12.8-32 32-32h960c19.2 0 32 12.8 32 32v672h-1024v-672zM672 448c0 19.2 12.8 32 32 32h128c19.2 0 32-12.8 32-32v-96c0-19.2-12.8-32-32-32h-128c-19.2 0-32 12.8-32 32v96zM416 448c0 19.2 12.8 32 32 32h128c19.2 0 32-12.8 32-32v-96c0-19.2-12.8-32-32-32h-128c-19.2 0-32 12.8-32 32v96zM416 224c0 19.2 12.8 32 32 32h128c19.2 0 32-12.8 32-32v-96c0-19.2-12.8-32-32-32h-128c-19.2 0-32 12.8-32 32v96zM160 448c0 19.2 12.8 32 32 32h128c19.2 0 32-12.8 32-32v-96c0-19.2-12.8-32-32-32h-128c-19.2 0-32 12.8-32 32v96zM160 224c0 19.2 12.8 32 32 32h128c19.2 0 32-12.8 32-32v-96c0-19.2-12.8-32-32-32h-128c-19.2 0-32 12.8-32 32v96z" />
<glyph unicode="&#xe669;" glyph-name="ui-glyph-1_calendar-grid-61" d="M992 864h-160v64c0 19.2-12.8 32-32 32h-96c-19.2 0-32-12.8-32-32v-64h-320v64c0 19.2-12.8 32-32 32h-96c-19.2 0-32-12.8-32-32v-64h-160c-19.2 0-32-12.8-32-32v-192h1024v192c0 19.2-12.8 32-32 32zM320 736h-96c-19.2 0-32 12.8-32 32s12.8 32 32 32h96c19.2 0 32-12.8 32-32s-12.8-32-32-32zM800 736h-96c-19.2 0-32 12.8-32 32s12.8 32 32 32h96c19.2 0 32-12.8 32-32s-12.8-32-32-32zM0-32c0-19.2 12.8-32 32-32h960c19.2 0 32 12.8 32 32v608h-1024v-608zM672 416c0 19.2 12.8 32 32 32h128c19.2 0 32-12.8 32-32v-96c0-19.2-12.8-32-32-32h-128c-19.2 0-32 12.8-32 32v96zM416 416c0 19.2 12.8 32 32 32h128c19.2 0 32-12.8 32-32v-96c0-19.2-12.8-32-32-32h-128c-19.2 0-32 12.8-32 32v96zM416 192c0 19.2 12.8 32 32 32h128c19.2 0 32-12.8 32-32v-96c0-19.2-12.8-32-32-32h-128c-19.2 0-32 12.8-32 32v96zM160 416c0 19.2 12.8 32 32 32h128c19.2 0 32-12.8 32-32v-96c0-19.2-12.8-32-32-32h-128c-19.2 0-32 12.8-32 32v96zM160 192c0 19.2 12.8 32 32 32h128c19.2 0 32-12.8 32-32v-96c0-19.2-12.8-32-32-32h-128c-19.2 0-32 12.8-32 32v96z" />
<glyph unicode="&#xe66a;" glyph-name="ui-glyph-1_check-bold" d="M384 96c0 0 0 0 0 0 9.6 0 16 3.2 22.4 9.6l576 608c6.4 6.4 9.6 16 9.6 25.6s-6.4 19.2-12.8 22.4l-96 64c-12.8 6.4-25.6 6.4-38.4-3.2l-460.8-364.8-204.8 147.2c-12.8 9.6-28.8 6.4-41.6-3.2l-96-96c-12.8-12.8-12.8-32 0-44.8l320-352c3.2-9.6 12.8-12.8 22.4-12.8z" />
<glyph unicode="&#xe66b;" glyph-name="ui-glyph-1_check-circle-07" d="M480-32c246.4 0 448 201.6 448 448 0 60.8-12.8 118.4-35.2 172.8-6.4 16-25.6 22.4-41.6 16s-25.6-25.6-16-41.6c19.2-48 28.8-96 28.8-147.2 0-211.2-172.8-384-384-384s-384 172.8-384 384 172.8 384 384 384c73.6 0 144-19.2 204.8-57.6 16-9.6 35.2-6.4 44.8 9.6s6.4 35.2-9.6 44.8c-73.6 44.8-153.6 67.2-240 67.2-246.4 0-448-201.6-448-448s201.6-448 448-448zM342.4 566.4c-12.8 12.8-32 12.8-44.8 0s-12.8-32 0-44.8l160-160c6.4-6.4 16-9.6 22.4-9.6s16 3.2 22.4 9.6l480 480c12.8 12.8 12.8 32 0 44.8s-32 12.8-44.8 0l-457.6-457.6-137.6 137.6z" />
<glyph unicode="&#xe66c;" glyph-name="ui-glyph-1_check-circle-08" d="M512 960c-281.6 0-512-230.4-512-512s230.4-512 512-512 512 230.4 512 512-230.4 512-512 512zM758.4 585.6l-320-320c-6.4-6.4-12.8-9.6-22.4-9.6s-16 3.2-22.4 9.6l-128 128c-12.8 12.8-12.8 32 0 44.8s32 12.8 44.8 0l105.6-105.6 297.6 297.6c12.8 12.8 32 12.8 44.8 0s12.8-32 0-44.8z" />
<glyph unicode="&#xe66d;" glyph-name="ui-glyph-1_check-curve" d="M329.6 73.6c6.4-6.4 16-9.6 22.4-9.6 0 0 3.2 0 3.2 0 9.6 0 19.2 6.4 25.6 16 249.6 390.4 592 595.2 595.2 595.2 12.8 6.4 19.2 22.4 12.8 38.4l-32 96c-3.2 9.6-9.6 16-19.2 19.2s-19.2 3.2-25.6 0c-281.6-144-502.4-342.4-566.4-403.2l-169.6 115.2c-12.8 9.6-28.8 6.4-41.6-3.2l-96-96c-12.8-12.8-12.8-32 0-44.8l291.2-323.2z" />
<glyph unicode="&#xe66e;" glyph-name="ui-glyph-1_check-simple" d="M361.6 73.6c6.4-6.4 16-9.6 22.4-9.6s16 3.2 22.4 9.6l576 576c12.8 12.8 12.8 32 0 44.8l-128 128c-12.8 12.8-32 12.8-44.8 0l-425.6-425.6-169.6 169.6c-12.8 12.8-32 12.8-44.8 0l-128-128c-12.8-12.8-12.8-32 0-44.8l320-320z" />
<glyph unicode="&#xe66f;" glyph-name="ui-glyph-1_check-small" d="M393.6 265.6c6.4-6.4 16-9.6 22.4-9.6s16 3.2 22.4 9.6l320 320c12.8 12.8 12.8 32 0 44.8s-32 12.8-44.8 0l-297.6-297.6-105.6 105.6c-12.8 12.8-32 12.8-44.8 0s-12.8-32 0-44.8l128-128z" />
<glyph unicode="&#xe670;" glyph-name="ui-glyph-1_check-square-09" d="M992 960h-960c-19.2 0-32-12.8-32-32v-960c0-19.2 12.8-32 32-32h960c19.2 0 32 12.8 32 32v960c0 19.2-12.8 32-32 32zM758.4 585.6l-320-320c-6.4-6.4-12.8-9.6-22.4-9.6s-16 3.2-22.4 9.6l-128 128c-12.8 12.8-12.8 32 0 44.8s32 12.8 44.8 0l105.6-105.6 297.6 297.6c12.8 12.8 32 12.8 44.8 0s12.8-32 0-44.8z" />
<glyph unicode="&#xe671;" glyph-name="ui-glyph-1_check-square-11" d="M342.4 566.4c-12.8 12.8-32 12.8-44.8 0s-12.8-32 0-44.8l160-160c6.4-6.4 16-9.6 22.4-9.6s16 3.2 22.4 9.6l480 480c12.8 12.8 12.8 32 0 44.8s-32 12.8-44.8 0l-457.6-457.6-137.6 137.6zM64-32h832c19.2 0 32 12.8 32 32v512c0 19.2-12.8 32-32 32s-32-12.8-32-32v-480h-768v768h544c19.2 0 32 12.8 32 32s-12.8 32-32 32h-576c-19.2 0-32-12.8-32-32v-832c0-19.2 12.8-32 32-32z" />
<glyph unicode="&#xe672;" glyph-name="ui-glyph-1_check" d="M361.6 137.6c6.4-6.4 16-9.6 22.4-9.6s16 3.2 22.4 9.6l576 576c12.8 12.8 12.8 32 0 44.8s-32 12.8-44.8 0l-553.6-553.6-297.6 297.6c-12.8 12.8-32 12.8-44.8 0s-12.8-32 0-44.8l320-320z" />
<glyph unicode="&#xe673;" glyph-name="ui-glyph-1_circle-add" d="M512 960c-281.6 0-512-230.4-512-512s230.4-512 512-512 512 230.4 512 512-230.4 512-512 512zM736 416h-192v-192c0-19.2-12.8-32-32-32s-32 12.8-32 32v192h-192c-19.2 0-32 12.8-32 32s12.8 32 32 32h192v192c0 19.2 12.8 32 32 32s32-12.8 32-32v-192h192c19.2 0 32-12.8 32-32s-12.8-32-32-32z" />
<glyph unicode="&#xe674;" glyph-name="ui-glyph-1_circle-bold-add" d="M512 960c-281.6 0-512-230.4-512-512s230.4-512 512-512 512 230.4 512 512-230.4 512-512 512zM800 416c0-19.2-12.8-32-32-32h-192v-192c0-19.2-12.8-32-32-32h-64c-19.2 0-32 12.8-32 32v192h-192c-19.2 0-32 12.8-32 32v64c0 19.2 12.8 32 32 32h192v192c0 19.2 12.8 32 32 32h64c19.2 0 32-12.8 32-32v-192h192c19.2 0 32-12.8 32-32v-64z" />
<glyph unicode="&#xe675;" glyph-name="ui-glyph-1_circle-bold-remove" d="M512 960c-281.6 0-512-230.4-512-512s230.4-512 512-512 512 230.4 512 512-230.4 512-512 512zM739.2 313.6c12.8-12.8 12.8-32 0-44.8l-44.8-44.8c-12.8-12.8-32-12.8-44.8 0l-137.6 134.4-134.4-134.4c-12.8-12.8-32-12.8-44.8 0l-44.8 44.8c-12.8 12.8-12.8 32 0 44.8l134.4 134.4-134.4 134.4c-12.8 12.8-12.8 32 0 44.8l44.8 44.8c12.8 12.8 32 12.8 44.8 0l134.4-134.4 134.4 134.4c12.8 12.8 32 12.8 44.8 0l44.8-44.8c12.8-12.8 12.8-32 0-44.8l-134.4-134.4 137.6-134.4z" />
<glyph unicode="&#xe676;" glyph-name="ui-glyph-1_circle-delete" d="M512 960c-281.6 0-512-230.4-512-512s230.4-512 512-512 512 230.4 512 512-230.4 512-512 512zM736 416h-448c-19.2 0-32 12.8-32 32s12.8 32 32 32h448c19.2 0 32-12.8 32-32s-12.8-32-32-32z" />
<glyph unicode="&#xe677;" glyph-name="ui-glyph-1_circle-remove" d="M512 960c-281.6 0-512-230.4-512-512s230.4-512 512-512 512 230.4 512 512-230.4 512-512 512zM726.4 278.4c12.8-12.8 12.8-32 0-44.8-6.4-6.4-12.8-9.6-22.4-9.6s-16 3.2-22.4 9.6l-169.6 169.6-169.6-169.6c-6.4-6.4-12.8-9.6-22.4-9.6s-16 3.2-22.4 9.6c-12.8 12.8-12.8 32 0 44.8l169.6 169.6-169.6 169.6c-12.8 12.8-12.8 32 0 44.8s32 12.8 44.8 0l169.6-169.6 169.6 169.6c12.8 12.8 32 12.8 44.8 0s12.8-32 0-44.8l-169.6-169.6 169.6-169.6z" />
<glyph unicode="&#xe678;" glyph-name="ui-glyph-1_dashboard-29" d="M512 960c-281.6 0-512-230.4-512-512s230.4-512 512-512 512 230.4 512 512-230.4 512-512 512zM243.2 563.2c-16-35.2-22.4-76.8-22.4-115.2 0-19.2-12.8-32-32-32s-32 12.8-32 32c0 48 9.6 96 28.8 140.8 6.4 16 25.6 22.4 41.6 16 12.8-6.4 22.4-25.6 16-41.6zM512 320c-70.4 0-128 57.6-128 128 0 22.4 6.4 44.8 19.2 64l-156.8 156.8c-12.8 12.8-12.8 32 0 44.8s32 12.8 44.8 0l156.8-156.8c19.2 12.8 41.6 19.2 64 19.2 70.4 0 128-57.6 128-128s-57.6-128-128-128zM838.4 416c-19.2 0-32 12.8-32 32 0 163.2-131.2 294.4-294.4 294.4-41.6 0-80-6.4-115.2-22.4-16-6.4-35.2 0-41.6 16s0 35.2 16 41.6c44.8 19.2 92.8 28.8 140.8 28.8 198.4 0 358.4-160 358.4-358.4 0-19.2-16-32-32-32z" />
<glyph unicode="&#xe679;" glyph-name="ui-glyph-1_dashboard-30" d="M512-64c281.6 0 512 230.4 512 512s-230.4 512-512 512-512-230.4-512-512 230.4-512 512-512zM896 480c19.2 0 32-12.8 32-32s-12.8-32-32-32h-96c-19.2 0-32 12.8-32 32s12.8 32 32 32h96zM694.4 675.2l67.2 67.2c12.8 12.8 32 12.8 44.8 0s12.8-32 0-44.8l-67.2-67.2c-6.4-6.4-16-9.6-22.4-9.6s-16 3.2-22.4 9.6c-12.8 9.6-12.8 32 0 44.8zM480 832c0 19.2 12.8 32 32 32s32-12.8 32-32v-96c0-19.2-12.8-32-32-32s-32 12.8-32 32v96zM233.6 726.4c12.8 12.8 32 12.8 44.8 0l169.6-169.6c19.2 12.8 41.6 19.2 64 19.2 70.4 0 128-57.6 128-128s-57.6-128-128-128-128 57.6-128 128c0 22.4 6.4 44.8 19.2 64l-169.6 169.6c-12.8 12.8-12.8 32 0 44.8zM96 448c0 19.2 12.8 32 32 32h96c19.2 0 32-12.8 32-32s-12.8-32-32-32h-96c-19.2 0-32 12.8-32 32z" />
<glyph unicode="&#xe67a;" glyph-name="ui-glyph-1_dashboard-half" d="M512 736c-281.6 0-512-230.4-512-512 0-19.2 12.8-32 32-32h451.2l-188.8 268.8c-9.6 16-6.4 35.2 6.4 44.8 16 9.6 35.2 6.4 44.8-6.4l214.4-307.2h432c19.2 0 32 12.8 32 32 0 281.6-230.4 512-512 512z" />
<glyph unicode="&#xe67b;" glyph-name="ui-glyph-1_dashboard-level" d="M512 960c-281.6 0-512-230.4-512-512s230.4-512 512-512 512 230.4 512 512-230.4 512-512 512zM896 352c0-19.2-12.8-32-32-32h-704c-19.2 0-32 12.8-32 32s12.8 32 32 32h294.4l-192 304c-9.6 12.8-6.4 32 9.6 41.6 12.8 9.6 32 6.4 41.6-9.6l214.4-336h336c19.2 0 32-12.8 32-32z" />
<glyph unicode="&#xe67c;" glyph-name="ui-glyph-1_database" d="M512 640c214.4 0 448 51.2 448 160s-233.6 160-448 160-448-51.2-448-160 233.6-160 448-160zM512 288c214.4 0 448 51.2 448 160v230.4c-92.8-73.6-275.2-102.4-448-102.4s-355.2 28.8-448 102.4v-230.4c0-108.8 233.6-160 448-160zM512-64c214.4 0 448 51.2 448 160v230.4c-92.8-73.6-275.2-102.4-448-102.4s-355.2 28.8-448 102.4v-230.4c0-108.8 233.6-160 448-160z" />
<glyph unicode="&#xe67d;" glyph-name="ui-glyph-1_drop" d="M512-64c188.8 0 384 144 384 384 0 233.6-345.6 582.4-361.6 598.4-12.8 12.8-32 12.8-44.8 0-16-16-361.6-364.8-361.6-598.4 0-240 195.2-384 384-384zM384 352c19.2 0 32-12.8 32-32 0-89.6 80-96 96-96s32-16 32-32-12.8-32-32-32c-44.8 0-160 28.8-160 160 0 19.2 12.8 32 32 32z" />
<glyph unicode="&#xe67e;" glyph-name="ui-glyph-1_edit-71" d="M758.4 918.4c-12.8 12.8-32 12.8-44.8 0l-640-640c-6.4-6.4-9.6-12.8-9.6-22.4v-224c0-19.2 12.8-32 32-32h224c9.6 0 16 3.2 22.4 9.6l640 640c12.8 12.8 12.8 32 0 44.8l-224 224z" />
<glyph unicode="&#xe67f;" glyph-name="ui-glyph-1_edit-72" d="M320 0c9.6 0 16 3.2 22.4 9.6l489.6 489.6-268.8 268.8-489.6-489.6c-6.4-6.4-9.6-12.8-9.6-22.4v-224c0-19.2 12.8-32 32-32h224zM758.4 918.4c-12.8 12.8-32 12.8-44.8 0l-105.6-105.6 268.8-268.8 105.6 105.6c12.8 12.8 12.8 32 0 44.8l-224 224z" />
<glyph unicode="&#xe680;" glyph-name="ui-glyph-1_edit-73" d="M160 96h192c9.6 0 16 3.2 22.4 9.6l576 576c12.8 12.8 12.8 32 0 44.8l-192 192c-12.8 12.8-32 12.8-44.8 0l-576-576c-6.4-6.4-9.6-12.8-9.6-22.4v-192c0-19.2 12.8-32 32-32zM160-64h704c19.2 0 32 12.8 32 32s-12.8 32-32 32h-704c-19.2 0-32-12.8-32-32s12.8-32 32-32z" />
<glyph unicode="&#xe681;" glyph-name="ui-glyph-1_edit-74" d="M160-64h704c19.2 0 32 12.8 32 32s-12.8 32-32 32h-704c-19.2 0-32-12.8-32-32s12.8-32 32-32zM950.4 726.4l-192 192c-12.8 12.8-32 12.8-44.8 0l-73.6-73.6 236.8-236.8 73.6 73.6c12.8 12.8 12.8 32 0 44.8zM160 96h192c9.6 0 16 3.2 22.4 9.6l457.6 457.6-236.8 236.8-457.6-457.6c-6.4-6.4-9.6-12.8-9.6-22.4v-192c0-19.2 12.8-32 32-32z" />
<glyph unicode="&#xe682;" glyph-name="ui-glyph-1_edit-75" d="M320 403.2v-115.2c0-19.2 12.8-32 32-32h115.2c9.6 0 16 3.2 22.4 9.6l448 448c12.8 12.8 12.8 32 0 44.8l-115.2 115.2c-12.8 12.8-32 12.8-44.8 0l-448-448c-6.4-6.4-9.6-12.8-9.6-22.4zM32-64h800c19.2 0 32 12.8 32 32v384c0 19.2-12.8 32-32 32s-32-12.8-32-32v-352h-736v736h352c19.2 0 32 12.8 32 32s-12.8 32-32 32h-384c-19.2 0-32-12.8-32-32v-800c0-19.2 12.8-32 32-32z" />
<glyph unicode="&#xe683;" glyph-name="ui-glyph-1_edit-76" d="M832-64c19.2 0 32 12.8 32 32v384c0 19.2-12.8 32-32 32s-32-12.8-32-32v-352h-736v736h352c19.2 0 32 12.8 32 32s-12.8 32-32 32h-384c-19.2 0-32-12.8-32-32v-800c0-19.2 12.8-32 32-32h800zM329.6 425.6c-6.4-6.4-9.6-12.8-9.6-22.4v-115.2c0-19.2 12.8-32 32-32h115.2c9.6 0 16 3.2 22.4 9.6l352 352-160 160-352-352zM937.6 713.6c12.8 12.8 12.8 32 0 44.8l-115.2 115.2c-12.8 12.8-32 12.8-44.8 0l-51.2-51.2 160-160 51.2 51.2z" />
<glyph unicode="&#xe684;" glyph-name="ui-glyph-1_edit-77" d="M864-32v512c0 19.2-12.8 32-32 32s-32-12.8-32-32v-480h-736v736h480c19.2 0 32 12.8 32 32s-12.8 32-32 32h-512c-19.2 0-32-12.8-32-32v-800c0-19.2 12.8-32 32-32h800c19.2 0 32 12.8 32 32zM905.6 886.4l-512-512c-12.8-12.8-12.8-32 0-44.8 6.4-6.4 16-9.6 22.4-9.6s16 3.2 22.4 9.6l512 512c12.8 12.8 12.8 32 0 44.8s-32 12.8-44.8 0z" />
<glyph unicode="&#xe685;" glyph-name="ui-glyph-1_edit-78" d="M905.6 886.4l-512-512c-12.8-12.8-12.8-32 0-44.8 6.4-6.4 16-9.6 22.4-9.6s16 3.2 22.4 9.6l512 512c12.8 12.8 12.8 32 0 44.8s-32 12.8-44.8 0zM0 384c0-246.4 201.6-448 448-448s448 201.6 448 448c0 60.8-12.8 118.4-35.2 172.8-6.4 16-25.6 22.4-41.6 16s-25.6-25.6-16-41.6c19.2-48 28.8-96 28.8-147.2 0-211.2-172.8-384-384-384s-384 172.8-384 384 172.8 384 384 384c51.2 0 102.4-9.6 147.2-28.8 16-6.4 35.2 0 41.6 16s0 35.2-16 41.6c-54.4 22.4-112 35.2-172.8 35.2-246.4 0-448-201.6-448-448z" />
<glyph unicode="&#xe686;" glyph-name="ui-glyph-1_email-83" d="M556.8 393.6c-12.8-6.4-28.8-9.6-44.8-9.6s-32 3.2-44.8 12.8l-467.2 246.4c0 0 0-3.2 0-3.2v-544c0-19.2 12.8-32 32-32h960c19.2 0 32 12.8 32 32v544c0 0 0 3.2 0 3.2l-467.2-249.6zM992 832h-960c-19.2 0-32-12.8-32-32v-64c0-12.8 6.4-22.4 16-28.8l480-256c6.4-3.2 9.6-3.2 16-3.2s9.6 0 16 3.2l480 256c9.6 6.4 16 16 16 28.8v64c0 19.2-12.8 32-32 32z" />
<glyph unicode="&#xe687;" glyph-name="ui-glyph-1_email-84" d="M992 832h-960c-19.2 0-32-12.8-32-32v-704c0-19.2 12.8-32 32-32h960c19.2 0 32 12.8 32 32v704c0 19.2-12.8 32-32 32zM915.2 678.4l-384-256c-6.4-3.2-12.8-6.4-19.2-6.4s-12.8 3.2-19.2 6.4l-384 256c-12.8 9.6-16 28.8-6.4 44.8 9.6 12.8 28.8 16 44.8 6.4l364.8-243.2 364.8 243.2c16 9.6 35.2 6.4 44.8-9.6 9.6-12.8 6.4-32-6.4-41.6z" />
<glyph unicode="&#xe688;" glyph-name="ui-glyph-1_email-85" d="M992 832h-960c-19.2 0-32-12.8-32-32v-704c0-19.2 12.8-32 32-32h960c19.2 0 32 12.8 32 32v704c0 19.2-12.8 32-32 32zM313.6 396.8l-128-160c-6.4-9.6-16-12.8-25.6-12.8-6.4 0-12.8 3.2-19.2 6.4-12.8 9.6-16 32-6.4 44.8l128 160c9.6 12.8 32 16 44.8 6.4 16-12.8 16-32 6.4-44.8zM883.2 230.4c-6.4-3.2-12.8-6.4-19.2-6.4-9.6 0-19.2 3.2-25.6 12.8l-128 160c-9.6 12.8-9.6 35.2 6.4 44.8 12.8 9.6 35.2 9.6 44.8-6.4l128-160c9.6-12.8 9.6-32-6.4-44.8zM883.2 646.4l-352-288c-6.4-3.2-12.8-6.4-19.2-6.4s-12.8 3.2-19.2 6.4l-352 288c-12.8 12.8-16 32-3.2 44.8s32 16 44.8 3.2l329.6-268.8 332.8 272c12.8 9.6 35.2 9.6 44.8-3.2 9.6-16 9.6-35.2-6.4-48z" />
<glyph unicode="&#xe689;" glyph-name="ui-glyph-1_eye-17" d="M512 128c256 0 464 288 473.6 300.8 6.4 9.6 6.4 25.6 0 38.4-9.6 12.8-214.4 300.8-473.6 300.8s-464-288-473.6-300.8c-6.4-9.6-6.4-25.6 0-38.4 9.6-12.8 214.4-300.8 473.6-300.8zM512 640c105.6 0 192-86.4 192-192s-86.4-192-192-192-192 86.4-192 192 86.4 192 192 192z" />
<glyph unicode="&#xe68a;" glyph-name="ui-glyph-1_eye-19" d="M512 160c256 0 464 256 473.6 268.8s9.6 28.8 0 38.4c-9.6 9.6-201.6 249.6-448 265.6-9.6 0-16 0-25.6 0s-16 0-25.6 0c-246.4-16-438.4-256-448-265.6-9.6-12.8-9.6-28.8 0-38.4 9.6-12.8 217.6-268.8 473.6-268.8zM512 672c89.6 0 160-70.4 160-160s-70.4-160-160-160-160 70.4-160 160 70.4 160 160 160zM512 416c19.2 0 32 12.8 32 32s-12.8 32-32 32c-19.2 0-32 12.8-32 32s-12.8 32-32 32-32-12.8-32-32c0-54.4 41.6-96 96-96z" />
<glyph unicode="&#xe68b;" glyph-name="ui-glyph-1_eye-ban-18" d="M512 256c-16 0-35.2 3.2-48 6.4l-102.4-102.4c48-19.2 99.2-32 150.4-32 256 0 464 288 473.6 300.8 6.4 9.6 6.4 25.6 0 38.4-3.2 6.4-64 89.6-153.6 166.4l-134.4-134.4c3.2-16 6.4-32 6.4-48 0-108.8-86.4-195.2-192-195.2zM38.4 467.2c-6.4-9.6-6.4-25.6 0-38.4 3.2-6.4 64-89.6 153.6-166.4l134.4 134.4c-3.2 16-6.4 32-6.4 48 0 105.6 86.4 192 192 192 16 0 35.2-3.2 48-6.4l102.4 105.6c-48 19.2-99.2 32-150.4 32-259.2 0-464-288-473.6-300.8zM873.6 854.4l-768-768c-12.8-12.8-12.8-32 0-44.8 6.4-6.4 12.8-9.6 22.4-9.6s16 3.2 22.4 9.6l768 768c12.8 12.8 12.8 32 0 44.8s-32 12.8-44.8 0z" />
<glyph unicode="&#xe68c;" glyph-name="ui-glyph-1_eye-ban-20" d="M217.6 262.4l-112-112c-12.8-12.8-12.8-32 0-44.8 6.4-6.4 12.8-9.6 22.4-9.6s16 3.2 22.4 9.6l124.8 124.8c70.4-38.4 150.4-70.4 236.8-70.4 256 0 464 256 473.6 268.8s9.6 28.8 0 38.4c-6.4 6.4-108.8 134.4-259.2 211.2l131.2 131.2c12.8 12.8 12.8 32 0 44.8s-32 12.8-44.8 0l-147.2-147.2c-38.4 12.8-80 25.6-124.8 28.8-9.6 0-16 0-25.6 0s-16 0-25.6 0c-246.4-16-438.4-256-448-265.6-9.6-12.8-9.6-28.8 0-38.4 3.2-9.6 70.4-96 176-169.6zM672 512c0-89.6-70.4-160-160-160-32 0-64 9.6-89.6 25.6l220.8 220.8c19.2-22.4 28.8-54.4 28.8-86.4zM512 672c32 0 64-9.6 89.6-25.6l-220.8-220.8c-19.2 22.4-28.8 54.4-28.8 86.4 0 89.6 70.4 160 160 160z" />
<glyph unicode="&#xe68d;" glyph-name="ui-glyph-1_flame" d="M512-64c188.8 0 384 144 384 384 0 233.6-345.6 582.4-361.6 598.4-12.8 12.8-32 12.8-44.8 0-16-16-361.6-364.8-361.6-598.4 0-240 195.2-384 384-384zM486.4 572.8c6.4 9.6 16 12.8 25.6 12.8s19.2-3.2 25.6-12.8c38.4-54.4 131.2-182.4 134.4-252.8 0-131.2-115.2-160-160-160s-160 28.8-160 160c3.2 70.4 96 198.4 134.4 252.8z" />
<glyph unicode="&#xe68e;" glyph-name="ui-glyph-1_home-51" d="M640-32h224c19.2 0 32 12.8 32 32v492.8l41.6-38.4c12.8-12.8 35.2-9.6 44.8 3.2 12.8 12.8 9.6 35.2-3.2 44.8l-448 384c-3.2 6.4-12.8 9.6-19.2 9.6s-16-3.2-22.4-6.4l-448-384c-12.8-12.8-16-32-3.2-44.8 6.4-9.6 16-12.8 25.6-12.8 6.4 0 16 3.2 22.4 6.4l41.6 38.4v-492.8c0-19.2 12.8-32 32-32h224c19.2 0 32 12.8 32 32v224h192v-224c0-19.2 12.8-32 32-32zM576 384h-128c-19.2 0-32 12.8-32 32v96c0 19.2 12.8 32 32 32h128c19.2 0 32-12.8 32-32v-96c0-19.2-12.8-32-32-32z" />
<glyph unicode="&#xe68f;" glyph-name="ui-glyph-1_home-52" d="M640-32h192c19.2 0 32 12.8 32 32v355.2c-3.2 3.2-6.4 3.2-6.4 6.4l-345.6 307.2-345.6-307.2c-3.2-3.2-3.2-3.2-6.4-6.4v-355.2c0-19.2 12.8-32 32-32h192c19.2 0 32 12.8 32 32v192h192v-192c0-19.2 12.8-32 32-32zM576 320h-128c-19.2 0-32 12.8-32 32v96c0 19.2 12.8 32 32 32h128c19.2 0 32-12.8 32-32v-96c0-19.2-12.8-32-32-32zM921.6 400c9.6 0 16 3.2 22.4 9.6l48 51.2c6.4 6.4 9.6 16 9.6 22.4 0 9.6-3.2 16-9.6 22.4l-457.6 412.8c-12.8 9.6-32 9.6-41.6 0l-172.8-153.6v99.2c0 19.2-12.8 32-32 32h-64c-19.2 0-32-12.8-32-32v-214.4l-156.8-144c-6.4-6.4-9.6-12.8-9.6-22.4s3.2-16 9.6-22.4l48-51.2c12.8-12.8 32-12.8 44.8-3.2l384 348.8 387.2-345.6c6.4-6.4 12.8-9.6 22.4-9.6z" />
<glyph unicode="&#xe690;" glyph-name="ui-glyph-1_home-minimal" d="M672-64h256c19.2 0 32 12.8 32 32v608c0 9.6-3.2 19.2-12.8 25.6l-416 320c-12.8 9.6-28.8 9.6-38.4 0l-416-320c-9.6-6.4-12.8-16-12.8-25.6v-608c0-19.2 12.8-32 32-32h256c19.2 0 32 12.8 32 32v288h256v-288c0-19.2 12.8-32 32-32z" />
<glyph unicode="&#xe691;" glyph-name="ui-glyph-1_home-simple" d="M640 0h160c19.2 0 32 12.8 32 32v384h96c12.8 0 25.6 6.4 28.8 19.2 6.4 12.8 3.2 25.6-6.4 35.2l-416 416c-12.8 12.8-32 12.8-44.8 0l-416-416c-9.6-9.6-12.8-22.4-6.4-35.2 3.2-12.8 16-19.2 28.8-19.2h96v-384c0-19.2 12.8-32 32-32h160c19.2 0 32 12.8 32 32v224h192v-224c0-19.2 12.8-32 32-32z" />
<glyph unicode="&#xe692;" glyph-name="ui-glyph-1_leaf-80" d="M41.6 22.4c-12.8-12.8-12.8-32 0-44.8 6.4-6.4 12.8-9.6 22.4-9.6s16 3.2 22.4 9.6l134.4 134.4c35.2-16 102.4-41.6 188.8-41.6 115.2 0 217.6 44.8 304 131.2 208 208 275.2 672 278.4 691.2 0 9.6-3.2 19.2-9.6 28.8-6.4 3.2-16 6.4-28.8 6.4-19.2-3.2-492.8-83.2-688-278.4-147.2-147.2-144-310.4-118.4-412.8l160 96c16 9.6 32-12.8 19.2-25.6l-284.8-284.8z" />
<glyph unicode="&#xe693;" glyph-name="ui-glyph-1_leaf-81" d="M953.6 928c-19.2-3.2-492.8-83.2-688-278.4-147.2-147.2-144-310.4-118.4-412.8l156.8 96c16 9.6 32-12.8 19.2-25.6l-284.8-284.8c-12.8-12.8-12.8-32 0-44.8 9.6-6.4 16-9.6 25.6-9.6s16 3.2 22.4 9.6l134.4 134.4c35.2-16 102.4-41.6 188.8-41.6 99.2 0 188.8 32 265.6 96 12.8 9.6 25.6 22.4 38.4 35.2 9.6 9.6 12.8 22.4 6.4 35.2l-73.6 166.4 124.8-70.4c6.4-3.2 16-6.4 25.6-3.2s16 9.6 19.2 16c9.6 19.2 19.2 38.4 28.8 60.8 92.8 208 147.2 476.8 150.4 486.4s0 22.4-9.6 28.8-19.2 6.4-32 6.4z" />
<glyph unicode="&#xe694;" glyph-name="ui-glyph-1_leaf-edit" d="M928-64c19.2 0 32 12.8 32 32v352c0 19.2-12.8 32-32 32s-32-12.8-32-32v-320h-832v832h320c19.2 0 32 12.8 32 32s-12.8 32-32 32h-352c-19.2 0-32-12.8-32-32v-896c0-19.2 12.8-32 32-32h896zM960 928c-12.8 0-281.6-3.2-448-169.6-99.2-99.2-115.2-208-112-288l102.4 57.6c16 9.6 32-12.8 19.2-25.6l-224-224c-12.8-12.8-12.8-32 0-44.8 6.4-6.4 12.8-9.6 22.4-9.6s16 3.2 22.4 9.6l112 112c19.2-6.4 54.4-12.8 96-12.8 70.4 0 176 19.2 268.8 115.2 169.6 166.4 172.8 435.2 172.8 448 0 9.6-3.2 16-9.6 22.4s-12.8 9.6-22.4 9.6z" />
<glyph unicode="&#xe695;" glyph-name="ui-glyph-1_lock-circle-open" d="M512 896c89.6 0 160-70.4 160-160 0-19.2 12.8-32 32-32s32 12.8 32 32c0 124.8-99.2 224-224 224s-224-99.2-224-224v-176c-76.8-64-128-163.2-128-272 0-195.2 156.8-352 352-352s352 156.8 352 352-156.8 352-352 352c-57.6 0-112-12.8-160-38.4v134.4c0 89.6 70.4 160 160 160zM512 480c70.4 0 128-57.6 128-128 0-60.8-41.6-108.8-96-124.8v-67.2c0-19.2-12.8-32-32-32s-32 12.8-32 32v67.2c-54.4 12.8-96 64-96 124.8 0 70.4 57.6 128 128 128z" />
<glyph unicode="&#xe696;" glyph-name="ui-glyph-1_lock-circle" d="M512 960c-124.8 0-224-99.2-224-224v-176c-76.8-64-128-163.2-128-272 0-195.2 156.8-352 352-352s352 156.8 352 352c0 108.8-51.2 208-128 272v176c0 124.8-99.2 224-224 224zM544 227.2v-67.2c0-19.2-12.8-32-32-32s-32 12.8-32 32v67.2c-54.4 12.8-96 64-96 124.8 0 70.4 57.6 128 128 128s128-57.6 128-128c0-60.8-41.6-108.8-96-124.8zM672 601.6c-48 25.6-102.4 38.4-160 38.4s-112-12.8-160-38.4v134.4c0 89.6 70.4 160 160 160s160-70.4 160-160v-134.4z" />
<glyph unicode="&#xe697;" glyph-name="ui-glyph-1_lock-open" d="M512 896c89.6 0 160-70.4 160-160 0-19.2 12.8-32 32-32s32 12.8 32 32c0 124.8-99.2 224-224 224s-224-99.2-224-224v-96h-128c-19.2 0-32-12.8-32-32v-640c0-19.2 12.8-32 32-32h704c19.2 0 32 12.8 32 32v640c0 19.2-12.8 32-32 32h-512v96c0 89.6 70.4 160 160 160zM512 480c70.4 0 128-57.6 128-128 0-60.8-41.6-108.8-96-124.8v-67.2c0-19.2-12.8-32-32-32s-32 12.8-32 32v67.2c-54.4 12.8-96 64-96 124.8 0 70.4 57.6 128 128 128z" />
<glyph unicode="&#xe698;" glyph-name="ui-glyph-1_lock" d="M512 960c-124.8 0-224-99.2-224-224v-96h-128c-19.2 0-32-12.8-32-32v-640c0-19.2 12.8-32 32-32h704c19.2 0 32 12.8 32 32v640c0 19.2-12.8 32-32 32h-128v96c0 124.8-99.2 224-224 224zM544 227.2v-67.2c0-19.2-12.8-32-32-32s-32 12.8-32 32v67.2c-54.4 12.8-96 64-96 124.8 0 70.4 57.6 128 128 128s128-57.6 128-128c0-60.8-41.6-108.8-96-124.8zM672 640h-320v96c0 89.6 70.4 160 160 160s160-70.4 160-160v-96z" />
<glyph unicode="&#xe699;" glyph-name="ui-glyph-1_notification-69" d="M496-60.8c9.6-3.2 16-3.2 25.6-3.2 22.4 0 44.8 6.4 64 19.2 25.6 16 44.8 44.8 51.2 73.6 6.4 32 0 60.8-16 89.6l-70.4 105.6h-275.2l144-233.6c19.2-25.6 48-44.8 76.8-51.2zM976 921.6c-9.6 6.4-19.2 6.4-32 3.2l-400-188.8h-352c-19.2 0-32-12.8-32-32v-35.2c-73.6-16-128-80-128-156.8s54.4-140.8 128-156.8v-35.2c0-19.2 12.8-32 32-32h352l403.2-188.8c3.2-3.2 9.6-3.2 12.8-3.2 6.4 0 12.8 3.2 16 6.4 9.6 6.4 16 16 16 25.6v768c0 9.6-6.4 22.4-16 25.6z" />
<glyph unicode="&#xe69a;" glyph-name="ui-glyph-1_notification-70" d="M816 960c-121.6 0-246.4-73.6-323.2-192h-364.8c-70.4 0-128-96-128-208s57.6-208 128-208h51.2l198.4-342.4c22.4-38.4 60.8-57.6 102.4-57.6 19.2 0 41.6 6.4 60.8 16 57.6 32 76.8 105.6 41.6 163.2l-128 220.8h38.4c73.6-118.4 198.4-192 323.2-192 115.2 0 208 176 208 400s-92.8 400-208 400zM816 224c-48 0-99.2 67.2-124.8 172.8 70.4 22.4 124.8 86.4 124.8 163.2s-54.4 147.2-124.8 169.6c28.8 102.4 80 166.4 124.8 166.4 67.2 0 144-137.6 144-336s-76.8-336-144-336z" />
<glyph unicode="&#xe69b;" glyph-name="ui-glyph-1_pencil" d="M67.2 268.8c0 0 0-3.2 0-3.2 0-3.2 0-3.2 0-6.4l-32-256c0-9.6 3.2-19.2 9.6-25.6 3.2-6.4 9.6-9.6 19.2-9.6 0 0 3.2 0 3.2 0l256 32c3.2 0 3.2 0 6.4 0 0 0 3.2 0 3.2 0 3.2 0 6.4 3.2 9.6 6.4l627.2 627.2c38.4 38.4 38.4 99.2 0 134.4l-134.4 134.4c-35.2 35.2-99.2 35.2-134.4 0l-627.2-624c-3.2-3.2-6.4-6.4-6.4-9.6zM320 76.8l-67.2 67.2 435.2 435.2 67.2-67.2-435.2-435.2zM672 787.2l179.2-179.2-51.2-51.2-179.2 179.2 51.2 51.2zM576 691.2l67.2-67.2-435.2-435.2-67.2 67.2 435.2 435.2z" />
<glyph unicode="&#xe69c;" glyph-name="ui-glyph-1_preferences-circle-rotate" d="M128 928v-448c0-19.2 12.8-32 32-32s32 12.8 32 32v448c0 19.2-12.8 32-32 32s-32-12.8-32-32zM544 832v96c0 19.2-12.8 32-32 32s-32-12.8-32-32v-96c0-19.2 12.8-32 32-32s32 12.8 32 32zM128 67.2v-99.2c0-19.2 12.8-32 32-32s32 12.8 32 32v99.2c73.6 16 128 80 128 156.8 0 89.6-70.4 160-160 160s-160-70.4-160-160c0-76.8 54.4-140.8 128-156.8zM832 928v-448c0-19.2 12.8-32 32-32s32 12.8 32 32v448c0 19.2-12.8 32-32 32s-32-12.8-32-32zM864 384c-89.6 0-160-70.4-160-160 0-76.8 54.4-140.8 128-156.8v-99.2c0-19.2 12.8-32 32-32s32 12.8 32 32v99.2c73.6 16 128 80 128 156.8 0 89.6-70.4 160-160 160zM512 736c-89.6 0-160-70.4-160-160 0-76.8 54.4-140.8 128-156.8v-451.2c0-19.2 12.8-32 32-32s32 12.8 32 32v451.2c73.6 16 128 80 128 156.8 0 89.6-70.4 160-160 160z" />
<glyph unicode="&#xe69d;" glyph-name="ui-glyph-1_preferences-circle" d="M992 832h-448c-19.2 0-32-12.8-32-32s12.8-32 32-32h448c19.2 0 32 12.8 32 32s-12.8 32-32 32zM0 800c0-19.2 12.8-32 32-32h99.2c16-73.6 80-128 156.8-128 89.6 0 160 70.4 160 160s-70.4 160-160 160c-76.8 0-140.8-54.4-156.8-128h-99.2c-19.2 0-32-12.8-32-32zM992 480h-96c-19.2 0-32-12.8-32-32s12.8-32 32-32h96c19.2 0 32 12.8 32 32s-12.8 32-32 32zM32 416h451.2c16-73.6 80-128 156.8-128 89.6 0 160 70.4 160 160s-70.4 160-160 160c-76.8 0-140.8-54.4-156.8-128h-451.2c-19.2 0-32-12.8-32-32s12.8-32 32-32zM992 128h-448c-19.2 0-32-12.8-32-32s12.8-32 32-32h448c19.2 0 32 12.8 32 32s-12.8 32-32 32zM32 64h99.2c16-73.6 80-128 156.8-128 89.6 0 160 70.4 160 160s-70.4 160-160 160c-76.8 0-140.8-54.4-156.8-128h-99.2c-19.2 0-32-12.8-32-32s12.8-32 32-32z" />
<glyph unicode="&#xe69e;" glyph-name="ui-glyph-1_preferences-container-circle-rotate" d="M992 960h-960c-19.2 0-32-12.8-32-32v-960c0-19.2 12.8-32 32-32h960c19.2 0 32 12.8 32 32v960c0 19.2-12.8 32-32 32zM736 800c0 19.2 12.8 32 32 32s32-12.8 32-32v-352c0-19.2-12.8-32-32-32s-32 12.8-32 32v352zM480 800c0 19.2 12.8 32 32 32s32-12.8 32-32v-96c0-19.2-12.8-32-32-32s-32 12.8-32 32v96zM224 800c0 19.2 12.8 32 32 32s32-12.8 32-32v-352c0-19.2-12.8-32-32-32s-32 12.8-32 32v352zM288 166.4v-70.4c0-19.2-12.8-32-32-32s-32 12.8-32 32v70.4c-38.4 12.8-64 48-64 89.6 0 54.4 41.6 96 96 96s96-41.6 96-96c0-41.6-25.6-76.8-64-89.6zM544 422.4v-326.4c0-19.2-12.8-32-32-32s-32 12.8-32 32v326.4c-38.4 12.8-64 48-64 89.6 0 54.4 41.6 96 96 96s96-41.6 96-96c0-41.6-25.6-76.8-64-89.6zM800 166.4v-70.4c0-19.2-12.8-32-32-32s-32 12.8-32 32v70.4c-38.4 12.8-64 48-64 89.6 0 54.4 41.6 96 96 96s96-41.6 96-96c0-41.6-25.6-76.8-64-89.6z" />
<glyph unicode="&#xe69f;" glyph-name="ui-glyph-1_preferences-container-circle" d="M992 960h-960c-19.2 0-32-12.8-32-32v-960c0-19.2 12.8-32 32-32h960c19.2 0 32 12.8 32 32v960c0 19.2-12.8 32-32 32zM160 736h70.4c12.8 38.4 48 64 89.6 64 54.4 0 96-41.6 96-96s-41.6-96-96-96c-41.6 0-76.8 25.6-89.6 64h-70.4c-19.2 0-32 12.8-32 32s12.8 32 32 32zM160 480h326.4c12.8 38.4 48 64 89.6 64 54.4 0 96-41.6 96-96s-41.6-96-96-96c-41.6 0-76.8 25.6-89.6 64h-326.4c-19.2 0-32 12.8-32 32s12.8 32 32 32zM320 96c-41.6 0-76.8 25.6-89.6 64h-70.4c-19.2 0-32 12.8-32 32s12.8 32 32 32h70.4c12.8 38.4 48 64 89.6 64 54.4 0 96-41.6 96-96s-41.6-96-96-96zM864 160h-352c-19.2 0-32 12.8-32 32s12.8 32 32 32h352c19.2 0 32-12.8 32-32s-12.8-32-32-32zM864 416h-96c-19.2 0-32 12.8-32 32s12.8 32 32 32h96c19.2 0 32-12.8 32-32s-12.8-32-32-32zM864 672h-352c-19.2 0-32 12.8-32 32s12.8 32 32 32h352c19.2 0 32-12.8 32-32s-12.8-32-32-32z" />
<glyph unicode="&#xe6a0;" glyph-name="ui-glyph-1_preferences-container-rotate" d="M992 960h-960c-19.2 0-32-12.8-32-32v-960c0-19.2 12.8-32 32-32h960c19.2 0 32 12.8 32 32v960c0 19.2-12.8 32-32 32zM736 800c0 19.2 12.8 32 32 32s32-12.8 32-32v-384c0-19.2-12.8-32-32-32s-32 12.8-32 32v384zM480 800c0 19.2 12.8 32 32 32s32-12.8 32-32v-96c0-19.2-12.8-32-32-32s-32 12.8-32 32v96zM224 800c0 19.2 12.8 32 32 32s32-12.8 32-32v-384c0-19.2-12.8-32-32-32s-32 12.8-32 32v384zM384 192c0-19.2-12.8-32-32-32h-64v-64c0-19.2-12.8-32-32-32s-32 12.8-32 32v64h-64c-19.2 0-32 12.8-32 32v96c0 19.2 12.8 32 32 32h192c19.2 0 32-12.8 32-32v-96zM608 448h-64v-352c0-19.2-12.8-32-32-32s-32 12.8-32 32v352h-64c-19.2 0-32 12.8-32 32v96c0 19.2 12.8 32 32 32h192c19.2 0 32-12.8 32-32v-96c0-19.2-12.8-32-32-32zM896 192c0-19.2-12.8-32-32-32h-64v-64c0-19.2-12.8-32-32-32s-32 12.8-32 32v64h-64c-19.2 0-32 12.8-32 32v96c0 19.2 12.8 32 32 32h192c19.2 0 32-12.8 32-32v-96z" />
<glyph unicode="&#xe6a1;" glyph-name="ui-glyph-1_preferences-container" d="M992 960h-960c-19.2 0-32-12.8-32-32v-960c0-19.2 12.8-32 32-32h960c19.2 0 32 12.8 32 32v960c0 19.2-12.8 32-32 32zM160 736h64v64c0 19.2 12.8 32 32 32h96c19.2 0 32-12.8 32-32v-192c0-19.2-12.8-32-32-32h-96c-19.2 0-32 12.8-32 32v64h-64c-19.2 0-32 12.8-32 32s12.8 32 32 32zM160 480h352v64c0 19.2 12.8 32 32 32h96c19.2 0 32-12.8 32-32v-192c0-19.2-12.8-32-32-32h-96c-19.2 0-32 12.8-32 32v64h-352c-19.2 0-32 12.8-32 32s12.8 32 32 32zM384 96c0-19.2-12.8-32-32-32h-96c-19.2 0-32 12.8-32 32v64h-64c-19.2 0-32 12.8-32 32s12.8 32 32 32h64v64c0 19.2 12.8 32 32 32h96c19.2 0 32-12.8 32-32v-192zM864 160h-384c-19.2 0-32 12.8-32 32s12.8 32 32 32h384c19.2 0 32-12.8 32-32s-12.8-32-32-32zM864 416h-96c-19.2 0-32 12.8-32 32s12.8 32 32 32h96c19.2 0 32-12.8 32-32s-12.8-32-32-32zM864 672h-384c-19.2 0-32 12.8-32 32s12.8 32 32 32h384c19.2 0 32-12.8 32-32s-12.8-32-32-32z" />
<glyph unicode="&#xe6a2;" glyph-name="ui-glyph-1_preferences-rotate" d="M128 928v-448c0-19.2 12.8-32 32-32s32 12.8 32 32v448c0 19.2-12.8 32-32 32s-32-12.8-32-32zM32 160h96v-192c0-19.2 12.8-32 32-32s32 12.8 32 32v192h96c19.2 0 32 12.8 32 32v160c0 19.2-12.8 32-32 32h-256c-19.2 0-32-12.8-32-32v-160c0-19.2 12.8-32 32-32zM832 928v-448c0-19.2 12.8-32 32-32s32 12.8 32 32v448c0 19.2-12.8 32-32 32s-32-12.8-32-32zM992 384h-256c-19.2 0-32-12.8-32-32v-160c0-19.2 12.8-32 32-32h96v-192c0-19.2 12.8-32 32-32s32 12.8 32 32v192h96c19.2 0 32 12.8 32 32v160c0 19.2-12.8 32-32 32zM544 832v96c0 19.2-12.8 32-32 32s-32-12.8-32-32v-96c0-19.2 12.8-32 32-32s32 12.8 32 32zM512-64c19.2 0 32 12.8 32 32v544h96c19.2 0 32 12.8 32 32v160c0 19.2-12.8 32-32 32h-256c-19.2 0-32-12.8-32-32v-160c0-19.2 12.8-32 32-32h96v-544c0-19.2 12.8-32 32-32z" />
</font>
</defs>
</svg>
